<?xml version="1.0" standalone="no"?>
<!DOCTYPE svg PUBLIC "-//W3C//DTD SVG 1.1//EN" "http://www.w3.org/Graphics/SVG/1.1/DTD/svg11.dtd" >
<svg xmlns="http://www.w3.org/2000/svg" xmlns:xlink="http://www.w3.org/1999/xlink" version="1.1">
<metadata>
Created by FontForge 20161003 at Thu Jul 12 06:26:35 2018
 By www-data
Copyright (c) Mark Simonson, 2005. All rights reserved.
</metadata>
<defs>
<font id="FontsFreeNetProximaNovaThin" horiz-adv-x="380" >
  <font-face 
    font-family="FontsFreeNetProximaNovaThin"
    font-weight="250"
    font-stretch="normal"
    units-per-em="1000"
    panose-1="2 0 5 6 3 0 0 2 0 4"
    ascent="790"
    descent="-210"
    x-height="483"
    cap-height="667"
    bbox="-171 -258 1059 886"
    underline-thickness="20"
    underline-position="-153"
    unicode-range="U+0020-FB04"
  />
<missing-glyph horiz-adv-x="527" 
d="M439 -90h-351v842h351v-842zM407 -60v782h-288v-782h288z" />
    <glyph glyph-name="f_f_j" unicode="ffj" horiz-adv-x="694" 
d="M130 0h-30v456h-80v27h80v51q0 67 32 105t89 38q45 0 82 -30l-18 -24q-29 27 -64 27q-91 0 -91 -116v-51h98v-27h-98v-456zM376 0h-30v456h-80v27h80v51q0 67 32 105t89 38q35 0 57 -13l-13 -26q-21 12 -44 12q-91 0 -91 -116v-51h98v-27h-98v-456zM593 566
q-11 0 -20 8.5t-9 20.5t9 20.5t20 8.5q12 0 20.5 -8.5t8.5 -20.5t-8.5 -20.5t-20.5 -8.5zM489 -196q-51 0 -92 38l19 25q32 -36 73 -36q40 0 64.5 23t24.5 70v559h30v-559q0 -120 -119 -120z" />
    <glyph glyph-name="f_j" unicode="fj" horiz-adv-x="448" 
d="M130 0h-30v456h-80v27h80v51q0 67 32 105t89 38q35 0 57 -13l-13 -26q-21 12 -44 12q-91 0 -91 -116v-51h98v-27h-98v-456zM347 566q-11 0 -20 8.5t-9 20.5t9 20.5t20 8.5q12 0 20.5 -8.5t8.5 -20.5t-8.5 -20.5t-20.5 -8.5zM243 -196q-51 0 -92 38l19 25q32 -36 73 -36
q40 0 64.5 23t24.5 70v559h30v-559q0 -120 -119 -120z" />
    <glyph glyph-name="f_f" unicode="ff" horiz-adv-x="492" 
d="M130 0h-30v456h-80v27h80v51q0 67 32 105t89 38q45 0 82 -30l-18 -24q-29 27 -64 27q-91 0 -91 -116v-51h98v-27h-98v-456zM376 0h-30v456h-80v27h80v51q0 67 32 105t89 38q45 0 82 -30l-18 -24q-29 27 -64 27q-91 0 -91 -116v-51h98v-27h-98v-456z" />
    <glyph glyph-name="fi" unicode="fi" horiz-adv-x="448" 
d="M130 0h-30v456h-80v27h80v51q0 67 32 105t89 38q35 0 57 -13l-13 -26q-21 12 -44 12q-91 0 -91 -116v-51h98v-27h-98v-456zM347 566q-11 0 -20 8.5t-9 20.5t9 20.5t20 8.5q12 0 20.5 -8.5t8.5 -20.5t-8.5 -20.5t-20.5 -8.5zM362 0h-30v483h30v-483z" />
    <glyph glyph-name="fl" unicode="fl" horiz-adv-x="448" 
d="M130 0h-30v456h-80v27h80v51q0 67 32 105t89 38q35 0 57 -13l-13 -26q-21 12 -44 12q-91 0 -91 -116v-51h98v-27h-98v-456zM362 0h-30v667h30v-667z" />
    <glyph glyph-name="f_f_i" unicode="ffi" horiz-adv-x="694" 
d="M130 0h-30v456h-80v27h80v51q0 67 32 105t89 38q45 0 82 -30l-18 -24q-29 27 -64 27q-91 0 -91 -116v-51h98v-27h-98v-456zM376 0h-30v456h-80v27h80v51q0 67 32 105t89 38q35 0 57 -13l-13 -26q-21 12 -44 12q-91 0 -91 -116v-51h98v-27h-98v-456zM593 566
q-11 0 -20 8.5t-9 20.5t9 20.5t20 8.5q12 0 20.5 -8.5t8.5 -20.5t-8.5 -20.5t-20.5 -8.5zM608 0h-30v483h30v-483z" />
    <glyph glyph-name="f_f_l" unicode="ffl" horiz-adv-x="694" 
d="M130 0h-30v456h-80v27h80v51q0 67 32 105t89 38q45 0 82 -30l-18 -24q-29 27 -64 27q-91 0 -91 -116v-51h98v-27h-98v-456zM376 0h-30v456h-80v27h80v51q0 67 32 105t89 38q35 0 57 -13l-13 -26q-21 12 -44 12q-91 0 -91 -116v-51h98v-27h-98v-456zM608 0h-30v667h30
v-667z" />
    <glyph glyph-name="f_b" unicode="fb" horiz-adv-x="812" 
d="M130 0h-30v456h-80v27h80v51q0 67 32 105t89 38q35 0 57 -13l-13 -26q-21 12 -44 12q-91 0 -91 -116v-51h98v-27h-98v-456zM362 111q24 -40 72 -68t102 -28q86 0 134.5 63.5t48.5 162.5t-48.5 163t-134.5 64q-54 0 -102 -29t-72 -69v-259zM362 0h-30v667h30v-267
q30 44 75.5 69.5t98.5 25.5q97 0 156.5 -70t59.5 -184q0 -115 -59 -184t-157 -69q-54 0 -101 26.5t-73 66.5v-81z" />
    <glyph glyph-name="f_h" unicode="fh" horiz-adv-x="774" 
d="M130 0h-30v456h-80v27h80v51q0 67 32 105t89 38q35 0 57 -13l-13 -26q-21 12 -44 12q-91 0 -91 -116v-51h98v-27h-98v-456zM688 0h-30v339q0 72 -32 100.5t-93 28.5q-48 0 -96 -26.5t-75 -64.5v-377h-30v667h30v-260q29 35 78 61.5t97 26.5q75 0 113 -36.5t38 -119.5
v-339z" />
    <glyph glyph-name="f_k" unicode="fk" horiz-adv-x="742" 
d="M130 0h-30v456h-80v27h80v51q0 67 32 105t89 38q35 0 57 -13l-13 -26q-21 12 -44 12q-91 0 -91 -116v-51h98v-27h-98v-456zM717 0h-43l-212 243l-100 -92v-151h-30v667h30v-478l315 294h43l-235 -218z" />
    <glyph glyph-name=".notdef" horiz-adv-x="527" 
d="M439 -90h-351v842h351v-842zM407 -60v782h-288v-782h288z" />
    <glyph glyph-name=".null" horiz-adv-x="0" 
 />
    <glyph glyph-name="nonmarkingreturn" horiz-adv-x="333" 
 />
    <glyph glyph-name="space" unicode=" " horiz-adv-x="260" 
 />
    <glyph glyph-name="exclam" unicode="!" horiz-adv-x="208" 
d="M114 161h-20l-11 506h42zM104 -9q-14 0 -23.5 9.5t-9.5 23.5q0 13 10 22.5t23 9.5t23 -9.5t10 -22.5q0 -14 -9.5 -23.5t-23.5 -9.5z" />
    <glyph glyph-name="quotedbl" unicode="&#x22;" horiz-adv-x="290" 
d="M99 443h-22q-15 197 -15 208t7.5 18.5t18.5 7.5t18.5 -7.5t7.5 -18.5zM213 443h-22q-15 197 -15 208t7.5 18.5t18.5 7.5t18.5 -7.5t7.5 -18.5z" />
    <glyph glyph-name="numbersign" unicode="#" horiz-adv-x="567" 
d="M267 0h-33l65 191h-125l-64 -191h-33l64 191h-115l9 29h116l76 227h-117l8 29h119l63 191h33l-63 -191h124l63 191h33l-64 -191h115l-7 -29h-117l-77 -227h120l-9 -29h-120zM307 220l77 227h-124l-76 -227h123z" />
    <glyph glyph-name="dollar" unicode="$" horiz-adv-x="575" 
d="M275 -100v88q-71 2 -128.5 31t-93.5 75l26 23q76 -94 196 -99v318q-39 11 -61 18t-52.5 21.5t-47 31t-28.5 42.5t-12 59q0 76 58.5 122t142.5 48v90h32v-91q122 -7 192 -93l-25 -23q-61 78 -167 86v-285q38 -11 62 -19.5t54.5 -25t48 -35t30 -48t12.5 -65.5
q0 -30 -10 -58t-32 -55.5t-64.5 -45.5t-100.5 -21v-89h-32zM479 169q0 29 -10 52t-24.5 38.5t-39 29t-45.5 21t-53 17.5v-309q48 3 83.5 18t54 38t26.5 46.5t8 48.5zM109 508q0 -30 12.5 -52.5t39 -38.5t50.5 -25t64 -21v277q-71 -2 -118.5 -41.5t-47.5 -98.5z" />
    <glyph glyph-name="percent" unicode="%" horiz-adv-x="709" 
d="M189 351q-67 0 -110 46t-43 116q0 71 43 117.5t110 46.5t110 -46.5t43 -117.5q0 -70 -43 -116t-110 -46zM163 0h-36l426 667h37zM520 -12q-67 0 -110 46t-43 116q0 71 43 117.5t110 46.5t110 -46.5t43 -117.5q0 -70 -43 -116t-110 -46zM189 378q53 0 86.5 39.5t33.5 95.5
q0 57 -33.5 97t-86.5 40q-52 0 -86 -40t-34 -97q0 -55 34 -95t86 -40zM520 15q53 0 86.5 39.5t33.5 95.5q0 57 -33.5 97t-86.5 40t-86.5 -40t-33.5 -97q0 -56 33.5 -95.5t86.5 -39.5z" />
    <glyph glyph-name="ampersand" unicode="&#x26;" horiz-adv-x="637" 
d="M591 0h-53q-34 29 -96 89q-80 -101 -199 -101q-84 0 -140 47t-56 132q0 73 40 119t111 86q-58 90 -58 155t43.5 107.5t105.5 42.5q60 0 95 -32t35 -90q0 -34 -12.5 -61.5t-40 -50.5t-49.5 -37.5t-62 -36.5q-7 -4 -11 -6q37 -53 94 -115q52 -58 100 -106q44 67 79 171
l32 -12q-50 -131 -86 -184q63 -61 128 -117zM243 18q98 0 174 96q-79 81 -105 112q-57 65 -97 120q-63 -36 -98 -77t-35 -102q0 -71 47 -110t114 -39zM175 527q0 -58 52 -138q33 18 48 26.5t40.5 26t37 32t21.5 36t10 45.5q0 44 -26.5 68t-68.5 24q-47 0 -80.5 -34
t-33.5 -86z" />
    <glyph glyph-name="quotesingle" unicode="'" horiz-adv-x="176" 
d="M99 443h-22q-15 197 -15 208t7.5 18.5t18.5 7.5t18.5 -7.5t7.5 -18.5z" />
    <glyph glyph-name="parenleft" unicode="(" horiz-adv-x="206" 
d="M189 -187l-16 -12q-126 206 -126 442t126 442l16 -11q-54 -114 -80.5 -210t-26.5 -221q0 -124 26.5 -221t80.5 -209z" />
    <glyph glyph-name="parenright" unicode=")" horiz-adv-x="206" 
d="M17 -187l16 -12q126 206 126 442t-126 442l-16 -11q54 -114 80.5 -210t26.5 -221q0 -124 -26.5 -221t-80.5 -209z" />
    <glyph glyph-name="asterisk" unicode="*" horiz-adv-x="330" 
d="M180 409h-30l6 119l-100 -65l-15 26l106 54l-106 54l15 26l100 -65l-6 119h30l-6 -119l100 65l15 -26l-106 -54l106 -54l-15 -26l-100 65z" />
    <glyph glyph-name="plus" unicode="+" horiz-adv-x="494" 
d="M465 322h-202v-222h-32v222h-202v30h202v216h32v-216h202v-30z" />
    <glyph glyph-name="comma" unicode="," horiz-adv-x="208" 
d="M142 3q0 -36 -18 -69.5t-44 -51.5l-22 18q24 18 38.5 43.5t14.5 48.5q-6 -1 -8 -1q-14 0 -23 9.5t-9 23.5q0 13 9 22.5t23 9.5q16 0 27.5 -14t11.5 -39z" />
    <glyph glyph-name="hyphen" unicode="-" horiz-adv-x="300" 
d="M270 227h-240v30h240v-30z" />
    <glyph glyph-name="period" unicode="." horiz-adv-x="208" 
d="M104 -9q-14 0 -23.5 9.5t-9.5 23.5q0 13 10 22.5t23 9.5t23 -9.5t10 -22.5q0 -14 -9.5 -23.5t-23.5 -9.5z" />
    <glyph glyph-name="slash" unicode="/" horiz-adv-x="268" 
d="M31 -20h-31l237 707h31z" />
    <glyph glyph-name="zero" unicode="0" horiz-adv-x="605" 
d="M303 -12q-63 0 -111 31.5t-74.5 83.5t-39.5 110.5t-13 119.5q0 62 13 120t39.5 109.5t74.5 83t111 31.5t110.5 -31.5t74 -83t39.5 -109.5t13 -120q0 -61 -13 -119.5t-39.5 -110.5t-74 -83.5t-110.5 -31.5zM303 18q55 0 96 29t63 76.5t32.5 100t10.5 109.5t-10.5 109.5
t-32.5 100t-63 76t-96 28.5t-96 -28.5t-63.5 -76t-33 -100t-10.5 -109.5t10.5 -109.5t33 -100.5t63.5 -76.5t96 -28.5z" />
    <glyph glyph-name="one" unicode="1" horiz-adv-x="277" 
d="M189 0h-32v621l-105 -115l-22 23l129 138h30v-667z" />
    <glyph glyph-name="two" unicode="2" horiz-adv-x="577" 
d="M480 0h-421v28q80 66 124 104.5t102.5 94.5t88 95t51 85.5t21.5 88.5q0 75 -49.5 113t-116.5 38q-62 0 -110 -24.5t-74 -65.5l-26 19q31 47 86.5 74t124.5 27q75 0 136 -45.5t61 -135.5q0 -33 -11.5 -67.5t-26.5 -63.5t-47 -67t-56.5 -63.5t-71.5 -68t-75 -66l-84 -70.5
h374v-30z" />
    <glyph glyph-name="three" unicode="3" horiz-adv-x="531" 
d="M252 -12q-75 0 -131.5 32t-84.5 80l28 16q61 -98 188 -98q83 0 132 42.5t49 116.5q0 77 -55 115t-138 38q-46 0 -56 -1v32q10 -1 56 -1q77 0 130 36t53 107q0 66 -49.5 105t-121.5 39q-58 0 -100.5 -22t-81.5 -68l-25 20q79 100 207 100q83 0 143 -46.5t60 -127.5
q0 -72 -45 -110.5t-97 -47.5q31 -3 64 -19.5t60.5 -56t27.5 -92.5q0 -83 -56.5 -136t-156.5 -53z" />
    <glyph glyph-name="four" unicode="4" horiz-adv-x="524" 
d="M385 0h-32v195h-315v33l305 439h42v-442h101v-30h-101v-195zM353 225v406l-280 -406h280z" />
    <glyph glyph-name="five" unicode="5" horiz-adv-x="574" 
d="M297 -12q-145 0 -216 112l26 19q67 -101 190 -101q77 0 128.5 51.5t51.5 128.5q0 83 -51 132.5t-129 49.5q-95 0 -168 -69l-27 16v340h364v-30h-332v-291q66 64 163 64q89 0 150.5 -56t61.5 -156q0 -94 -62.5 -152t-149.5 -58z" />
    <glyph glyph-name="six" unicode="6" horiz-adv-x="577" 
d="M297 -12q-62 0 -108.5 28.5t-72.5 78.5t-38.5 109.5t-12.5 128.5q0 65 12.5 123t39 109t74.5 81.5t112 30.5q112 0 175 -90l-24 -21q-56 81 -151 81q-56 0 -98 -28.5t-64.5 -77t-33 -103t-10.5 -115.5q0 -24 1 -36q25 42 81.5 80.5t121.5 38.5q94 0 152.5 -53.5
t58.5 -156.5q0 -83 -58 -145.5t-157 -62.5zM297 18q87 0 135 55.5t48 122.5q0 88 -49 134t-131 46q-59 0 -113 -36.5t-85 -93.5q4 -40 16 -78t34 -73t59.5 -56t85.5 -21z" />
    <glyph glyph-name="seven" unicode="7" horiz-adv-x="489" 
d="M158 0h-36l293 637h-379v30h417v-22z" />
    <glyph glyph-name="eight" unicode="8" horiz-adv-x="561" 
d="M281 -12q-95 0 -155 49.5t-60 127.5q0 68 50.5 114.5t122.5 64.5q-68 16 -115 57.5t-47 104.5q0 82 61 126.5t143 44.5q81 0 142.5 -45t61.5 -126q0 -63 -47 -104.5t-115 -57.5q72 -18 122 -64.5t50 -114.5q0 -77 -60.5 -127t-153.5 -50zM281 359q23 4 45.5 12t54.5 24
t52 45t20 66q0 65 -49.5 103t-122.5 38t-122.5 -38t-49.5 -103q0 -37 20 -66t52.5 -45.5t54.5 -23.5t45 -12zM281 18q74 0 128 40.5t54 106.5q0 40 -22 73t-54.5 51.5t-59.5 28.5t-46 12q-19 -2 -46.5 -12t-60 -28.5t-54.5 -51.5t-22 -73q0 -66 54 -106.5t129 -40.5z" />
    <glyph glyph-name="nine" unicode="9" horiz-adv-x="577" 
d="M274 -11q-112 0 -175 90l24 21q56 -81 151 -81q56 0 98 28.5t64.5 77t33 103t10.5 115.5q0 24 -1 36q-25 -42 -81.5 -80.5t-121.5 -38.5q-94 0 -152.5 53.5t-58.5 156.5q0 83 58 145.5t157 62.5q62 0 108.5 -28.5t72.5 -78.5t38.5 -109.5t12.5 -128.5q0 -65 -12.5 -123
t-39 -109t-74.5 -81.5t-112 -30.5zM277 290q59 0 113 36.5t85 93.5q-4 40 -16 78t-34 73t-59.5 56t-85.5 21q-87 0 -135 -55.5t-48 -122.5q0 -88 49 -134t131 -46z" />
    <glyph glyph-name="colon" unicode=":" horiz-adv-x="208" 
d="M104 425q-13 0 -23 9.5t-10 22.5t9.5 23t23.5 10t23.5 -10t9.5 -23t-10 -22.5t-23 -9.5zM104 -9q-14 0 -23.5 9.5t-9.5 23.5q0 13 10 22.5t23 9.5t23 -9.5t10 -22.5q0 -14 -9.5 -23.5t-23.5 -9.5z" />
    <glyph glyph-name="semicolon" unicode=";" horiz-adv-x="208" 
d="M104 425q-13 0 -23 9.5t-10 22.5t9.5 23t23.5 10t23.5 -10t9.5 -23t-10 -22.5t-23 -9.5zM142 3q0 -36 -18 -69.5t-44 -51.5l-22 18q24 18 38.5 43.5t14.5 48.5q-6 -1 -8 -1q-14 0 -23 9.5t-9 23.5q0 13 9 22.5t23 9.5q16 0 27.5 -14t11.5 -39z" />
    <glyph glyph-name="less" unicode="&#x3c;" horiz-adv-x="494" 
d="M465 90l-436 234v21l436 235v-36l-395 -210l395 -208v-36z" />
    <glyph glyph-name="equal" unicode="=" horiz-adv-x="494" 
d="M465 418h-436v30h436v-30zM465 220h-436v30h436v-30z" />
    <glyph glyph-name="greater" unicode="&#x3e;" horiz-adv-x="494" 
d="M465 324l-436 -234v36l395 208l-395 210v36l436 -235v-21z" />
    <glyph glyph-name="question" unicode="?" horiz-adv-x="467" 
d="M225 168q-44 33 -44 76q0 37 21.5 67t52.5 50.5t62 42t52.5 52t21.5 68.5q0 52 -40 87.5t-111 35.5q-68 0 -112.5 -25t-78.5 -73l-23 21q75 107 214 107q85 0 135.5 -44.5t50.5 -108.5q0 -36 -16 -66.5t-40 -50t-51.5 -39.5t-51.5 -36.5t-40 -39t-16 -48.5q0 -30 33 -53z
M222 -9q-14 0 -23.5 9.5t-9.5 23.5q0 13 10 22.5t23 9.5t23 -9.5t10 -22.5q0 -14 -9.5 -23.5t-23.5 -9.5z" />
    <glyph glyph-name="at" unicode="@" horiz-adv-x="783" 
d="M352 -70q-136 0 -226.5 90.5t-90.5 223.5q0 106 55.5 197.5t147 144t194.5 52.5q138 0 226.5 -94t88.5 -233q0 -105 -43.5 -165.5t-107.5 -60.5q-38 0 -62 26t-24 62v6q-28 -40 -74 -67t-97 -27q-68 0 -110 43t-42 115q0 106 75 181.5t168 75.5q49 0 82.5 -24.5
t48.5 -62.5l14 69h30l-62 -294q-1 -6 -1 -18q0 -26 15.5 -42t38.5 -16q17 0 36 9.5t39.5 30.5t33.5 62.5t13 97.5q0 127 -81 211.5t-208 84.5q-146 0 -255 -110.5t-109 -252.5q0 -122 82.5 -204t208.5 -82q97 0 188 57l16 -23q-98 -63 -208 -63zM339 112q56 0 102.5 32.5
t77.5 78.5l34 157q-11 36 -42.5 64.5t-80.5 28.5q-85 0 -147.5 -70.5t-62.5 -159.5q0 -58 31.5 -94.5t87.5 -36.5z" />
    <glyph glyph-name="A" unicode="A" horiz-adv-x="636" 
d="M615 0h-37l-74 179h-372l-74 -179h-37l278 667h38zM492 209l-174 421l-174 -421h348z" />
    <glyph glyph-name="B" unicode="B" horiz-adv-x="600" 
d="M343 0h-255v667h251q82 0 132 -44.5t50 -125.5q0 -60 -35 -101.5t-83 -51.5q53 -8 92 -57t39 -107q0 -85 -51.5 -132.5t-139.5 -47.5zM339 358q71 0 109 39t38 100q0 60 -38.5 100t-108.5 40h-219v-279h219zM343 30q73 0 114.5 40t41.5 109q0 61 -41 105t-115 44h-223
v-298h223z" />
    <glyph glyph-name="C" unicode="C" horiz-adv-x="667" 
d="M398 -12q-141 0 -237 97t-96 248t96 248t237 97t232 -105l-25 -22q-36 45 -90.5 71t-116.5 26q-127 0 -212.5 -88t-85.5 -227q0 -138 85.5 -226.5t212.5 -88.5q62 0 116.5 26t90.5 71l26 -21q-94 -106 -233 -106z" />
    <glyph glyph-name="D" unicode="D" horiz-adv-x="684" 
d="M286 0h-198v667h198q150 0 241 -97.5t91 -236.5q0 -140 -90.5 -236.5t-241.5 -96.5zM286 30q138 0 217.5 86t79.5 217q0 130 -80 217t-217 87h-166v-607h166z" />
    <glyph glyph-name="E" unicode="E" horiz-adv-x="558" 
d="M496 0h-408v667h408v-30h-376v-279h369v-30h-369v-298h376v-30z" />
    <glyph glyph-name="F" unicode="F" horiz-adv-x="533" 
d="M120 0h-32v667h408v-30h-376v-279h369v-30h-369v-328z" />
    <glyph glyph-name="G" unicode="G" horiz-adv-x="708" 
d="M398 -13q-141 0 -237 97t-96 249q0 151 96 248t237 97q144 0 244 -103l-21 -22q-39 45 -98 70t-125 25q-127 0 -212.5 -88t-85.5 -227q0 -138 85.5 -227t212.5 -89q67 0 122 26.5t90 63.5v183h-275v30h307v-226q-44 -49 -107.5 -78t-136.5 -29z" />
    <glyph glyph-name="H" unicode="H" horiz-adv-x="695" 
d="M607 0h-32v328h-455v-328h-32v667h32v-309h455v309h32v-667z" />
    <glyph glyph-name="I" unicode="I" horiz-adv-x="208" 
d="M120 0h-32v667h32v-667z" />
    <glyph glyph-name="J" unicode="J" horiz-adv-x="465" 
d="M185 -12q-107 0 -169 87l27 24q57 -81 142 -81q73 0 116.5 46.5t43.5 120.5v482h32v-482q0 -95 -55 -146t-137 -51z" />
    <glyph glyph-name="K" unicode="K" horiz-adv-x="571" 
d="M540 0h-43l-297 328l-80 -87v-241h-32v667h32v-385l347 385h43l-290 -319z" />
    <glyph glyph-name="L" unicode="L" horiz-adv-x="475" 
d="M439 0h-367v667h32v-637h335v-30z" />
    <glyph glyph-name="M" unicode="M" horiz-adv-x="770" 
d="M682 0h-32v629l-260 -629h-10l-260 629v-629h-32v667h51l246 -597l246 597h51v-667z" />
    <glyph glyph-name="N" unicode="N" horiz-adv-x="690" 
d="M602 0h-32l-450 615v-615h-32v667h32l450 -609v609h32v-667z" />
    <glyph glyph-name="O" unicode="O" horiz-adv-x="764" 
d="M382 -12q-143 0 -230 98.5t-87 246.5t87 246.5t230 98.5q142 0 229.5 -98.5t87.5 -246.5t-87.5 -246.5t-229.5 -98.5zM382 18q127 0 204.5 88.5t77.5 226.5q0 139 -77.5 227t-204.5 88q-128 0 -205 -88t-77 -227q0 -138 77 -226.5t205 -88.5z" />
    <glyph glyph-name="P" unicode="P" horiz-adv-x="555" 
d="M120 0h-32v667h231q90 0 142.5 -54.5t52.5 -134.5q0 -79 -53 -134t-142 -55h-199v-289zM318 319q73 0 117 44.5t44 114.5t-44 114.5t-117 44.5h-198v-318h198z" />
    <glyph glyph-name="Q" unicode="Q" horiz-adv-x="764" 
d="M382 -12q-143 0 -230 98.5t-87 246.5t87 246.5t230 98.5q142 0 229.5 -98.5t87.5 -246.5q0 -158 -97 -257l76 -76l-22 -23l-78 78q-83 -67 -196 -67zM382 18q100 0 173 59l-110 111l23 23l111 -112q85 88 85 234q0 139 -77.5 227t-204.5 88q-128 0 -205 -88t-77 -227
q0 -138 77 -226.5t205 -88.5z" />
    <glyph glyph-name="R" unicode="R" horiz-adv-x="579" 
d="M524 0h-41l-203 288h-160v-288h-32v667h230q85 0 141 -50.5t56 -138.5t-56.5 -139t-140.5 -51zM318 318q73 0 117.5 45t44.5 115t-44.5 114.5t-117.5 44.5h-198v-319h198z" />
    <glyph glyph-name="S" unicode="S" horiz-adv-x="575" 
d="M286 -12q-75 0 -135 29t-98 77l26 23q81 -99 207 -99q55 0 95 14.5t60 38t29 48t9 50.5q0 51 -30 85.5t-75 49.5t-97.5 31.5t-97.5 32t-75 51.5t-30 89q0 78 61 124t148 46q140 0 216 -94l-25 -23q-67 87 -191 87q-74 0 -124 -39.5t-50 -100.5q0 -38 22.5 -65t58 -42
t79 -27.5t86.5 -27t78.5 -34.5t58 -56.5t22.5 -86.5q0 -31 -11 -60.5t-35 -58t-71 -45.5t-111 -17z" />
    <glyph glyph-name="T" unicode="T" horiz-adv-x="559" 
d="M295 0h-32v637h-225v30h483v-30h-226v-637z" />
    <glyph glyph-name="U" unicode="U" horiz-adv-x="672" 
d="M336 -12q-120 0 -184 70t-64 195v414h32v-414q0 -112 56 -173.5t160 -61.5t160 61.5t56 173.5v414h32v-414q0 -125 -64 -195t-184 -70z" />
    <glyph glyph-name="V" unicode="V" horiz-adv-x="636" 
d="M337 0h-38l-278 667h37l260 -630l260 630h37z" />
    <glyph glyph-name="W" unicode="W" horiz-adv-x="852" 
d="M637 0h-38l-173 607l-173 -607h-38l-190 667h35l174 -619l175 619h34l175 -619l174 619h35z" />
    <glyph glyph-name="X" unicode="X" horiz-adv-x="638" 
d="M613 0h-42l-252 318l-252 -318h-42l276 342l-261 325h43l236 -299l236 299h43l-261 -324z" />
    <glyph glyph-name="Y" unicode="Y" horiz-adv-x="610" 
d="M321 0h-32v289l-268 378h41l243 -346l243 346h41l-268 -378v-289z" />
    <glyph glyph-name="Z" unicode="Z" horiz-adv-x="578" 
d="M525 0h-472v30l427 607h-427v30h465v-30l-428 -607h435v-30z" />
    <glyph glyph-name="bracketleft" unicode="[" horiz-adv-x="212" 
d="M195 -190h-161v868h161v-30h-131v-808h131v-30z" />
    <glyph glyph-name="backslash" unicode="\" horiz-adv-x="268" 
d="M237 -20l-237 707h31l237 -707h-31z" />
    <glyph glyph-name="bracketright" unicode="]" horiz-adv-x="212" 
d="M178 -190h-161v30h131v808h-131v30h161v-868z" />
    <glyph glyph-name="asciicircum" unicode="^" horiz-adv-x="424" 
d="M405 333h-34l-159 307l-159 -307h-34l180 334h26z" />
    <glyph glyph-name="underscore" unicode="_" horiz-adv-x="564" 
d="M567 -70h-570v30h570v-30z" />
    <glyph glyph-name="grave" unicode="`" horiz-adv-x="205" 
d="M205 556h-30l-175 144h45z" />
    <glyph glyph-name="grave" unicode="&#x2cb;" horiz-adv-x="205" 
d="M205 556h-30l-175 144h45z" />
    <glyph glyph-name="a" unicode="a" horiz-adv-x="514" 
d="M428 0h-30v59q-65 -71 -167 -71q-68 0 -118.5 43.5t-50.5 117.5t50 117.5t119 43.5q102 0 167 -71v109q0 56 -39 88t-97 32q-92 0 -155 -76l-23 20q37 43 78 63t100 20q74 0 120 -37.5t46 -108.5v-349zM239 15q103 0 159 74v120q-56 74 -159 74q-65 0 -104.5 -38.5
t-39.5 -95.5t39.5 -95.5t104.5 -38.5z" />
    <glyph glyph-name="b" unicode="b" horiz-adv-x="566" 
d="M116 111q24 -40 72 -68t102 -28q86 0 134.5 63.5t48.5 162.5t-48.5 163t-134.5 64q-54 0 -102 -29t-72 -69v-259zM116 0h-30v667h30v-267q30 44 75.5 69.5t98.5 25.5q97 0 156.5 -70t59.5 -184q0 -115 -59 -184t-157 -69q-54 0 -101 26.5t-73 66.5v-81z" />
    <glyph glyph-name="c" unicode="c" horiz-adv-x="493" 
d="M288 -12q-102 0 -165 73.5t-63 180.5t63 180t165 73q56 0 94 -20t71 -61l-22 -18q-53 72 -141 72q-91 0 -144 -64.5t-53 -161.5q0 -98 53.5 -162.5t143.5 -64.5q87 0 141 73l22 -19q-33 -41 -71 -61t-94 -20z" />
    <glyph glyph-name="d" unicode="d" horiz-adv-x="566" 
d="M480 0h-30v81q-26 -40 -73 -66.5t-101 -26.5q-98 0 -157 69t-59 184q0 114 59.5 184t156.5 70q53 0 98.5 -25.5t75.5 -69.5v267h30v-667zM276 15q54 0 102 28t72 68v259q-24 40 -72 69t-102 29q-86 0 -134.5 -64t-48.5 -163t48.5 -162.5t134.5 -63.5z" />
    <glyph glyph-name="e" unicode="e" horiz-adv-x="571" 
d="M297 -12q-105 0 -171 71.5t-66 182.5q0 106 65 179.5t162 73.5q106 0 165 -73t59 -180v-10h-417q2 -92 57.5 -154.5t145.5 -62.5q100 0 168 73l18 -19q-78 -81 -186 -81zM479 259q0 49 -20 95.5t-65.5 80t-107.5 33.5q-87 0 -138 -64.5t-54 -144.5h385z" />
    <glyph glyph-name="f" unicode="f" horiz-adv-x="246" 
d="M130 0h-30v456h-80v27h80v51q0 67 32 105t89 38q45 0 82 -30l-18 -24q-29 27 -64 27q-91 0 -91 -116v-51h98v-27h-98v-456z" />
    <glyph glyph-name="g" unicode="g" horiz-adv-x="566" 
d="M276 -196q-63 0 -103.5 15t-81.5 58l22 25q31 -39 68.5 -55t94.5 -16q77 0 125.5 41.5t48.5 124.5v84q-27 -40 -73.5 -67.5t-100.5 -27.5q-98 0 -157 69.5t-59 184.5q0 114 59.5 184.5t156.5 70.5q53 0 98.5 -25.5t75.5 -69.5v83h30v-486q0 -99 -55.5 -146t-148.5 -47z
M276 13q54 0 102 29t72 69v259q-24 40 -72 69t-102 29q-86 0 -134.5 -64.5t-48.5 -163.5t48.5 -163t134.5 -64z" />
    <glyph glyph-name="h" unicode="h" horiz-adv-x="528" 
d="M442 0h-30v339q0 72 -32 100.5t-93 28.5q-48 0 -96 -26.5t-75 -64.5v-377h-30v667h30v-260q29 35 78 61.5t97 26.5q75 0 113 -36.5t38 -119.5v-339z" />
    <glyph glyph-name="i" unicode="i" horiz-adv-x="202" 
d="M101 566q-11 0 -20 8.5t-9 20.5t9 20.5t20 8.5q12 0 20.5 -8.5t8.5 -20.5t-8.5 -20.5t-20.5 -8.5zM116 0h-30v483h30v-483z" />
    <glyph glyph-name="j" unicode="j" horiz-adv-x="202" 
d="M101 566q-11 0 -20 8.5t-9 20.5t9 20.5t20 8.5q12 0 20.5 -8.5t8.5 -20.5t-8.5 -20.5t-20.5 -8.5zM-3 -196q-51 0 -92 38l19 25q32 -36 73 -36q40 0 64.5 23t24.5 70v559h30v-559q0 -120 -119 -120z" />
    <glyph glyph-name="k" unicode="k" horiz-adv-x="496" 
d="M471 0h-43l-212 243l-100 -92v-151h-30v667h30v-478l315 294h43l-235 -218z" />
    <glyph glyph-name="l" unicode="l" horiz-adv-x="202" 
d="M116 0h-30v667h30v-667z" />
    <glyph glyph-name="m" unicode="m" horiz-adv-x="770" 
d="M684 0h-30v348q0 120 -104 120q-40 0 -83.5 -26.5t-66.5 -63.5v-378h-30v348q0 120 -104 120q-40 0 -82.5 -26.5t-67.5 -64.5v-377h-30v483h30v-76q18 29 63 58.5t92 29.5q53 0 85 -27t40 -65q22 36 66.5 64t92.5 28q129 0 129 -147v-348z" />
    <glyph glyph-name="n" unicode="n" horiz-adv-x="528" 
d="M442 0h-30v337q0 72 -32 101.5t-93 29.5q-48 0 -96 -26.5t-75 -64.5v-377h-30v483h30v-76q29 35 78 61.5t97 26.5q75 0 113 -37.5t38 -120.5v-337z" />
    <glyph glyph-name="o" unicode="o" horiz-adv-x="570" 
d="M285 -12q-100 0 -162.5 72.5t-62.5 181.5q0 108 62.5 180.5t162.5 72.5q101 0 163 -72t62 -181t-62 -181.5t-163 -72.5zM285 15q89 0 140.5 66.5t51.5 160.5q0 93 -51.5 159.5t-140.5 66.5q-88 0 -140 -66.5t-52 -159.5q0 -94 52 -160.5t140 -66.5z" />
    <glyph glyph-name="p" unicode="p" horiz-adv-x="562" 
d="M290 -12q-53 0 -98.5 25.5t-75.5 69.5v-267h-30v667h30v-81q26 40 73 66.5t101 26.5q98 0 157 -69t59 -184q0 -114 -59.5 -184t-156.5 -70zM290 15q86 0 134.5 64t48.5 163t-48.5 162.5t-134.5 63.5q-54 0 -102 -28t-72 -68v-259q24 -40 72 -69t102 -29z" />
    <glyph glyph-name="q" unicode="q" horiz-adv-x="562" 
d="M272 15q54 0 102 29t72 69v259q-24 40 -72 68t-102 28q-86 0 -134.5 -63.5t-48.5 -162.5t48.5 -163t134.5 -64zM272 -12q-97 0 -156.5 70t-59.5 184q0 115 59 184t157 69q54 0 101 -26.5t73 -66.5v81h30v-667h-30v267q-30 -44 -75.5 -69.5t-98.5 -25.5z" />
    <glyph glyph-name="r" unicode="r" horiz-adv-x="304" 
d="M116 0h-30v483h30v-88q73 97 166 97v-36q-9 1 -24 1q-37 0 -81 -30t-61 -65v-362z" />
    <glyph glyph-name="s" unicode="s" horiz-adv-x="454" 
d="M221 -12q-110 0 -177 77l24 22q54 -72 153 -72q65 0 104 31.5t39 80.5q0 41 -32 65t-77.5 35.5t-91 24t-77.5 40.5t-32 75q0 55 44 91.5t120 36.5q109 0 166 -73l-22 -20q-46 66 -144 66q-62 0 -98 -28.5t-36 -72.5q0 -37 32 -58.5t77.5 -32.5t91 -24t77.5 -43.5
t32 -81.5q0 -60 -44.5 -99.5t-128.5 -39.5z" />
    <glyph glyph-name="t" unicode="t" horiz-adv-x="256" 
d="M174 -12q-82 0 -82 97v371h-80v27h80v132h30v-132h98v-27h-98v-371q0 -70 52 -70q35 0 57 26l18 -23q-32 -30 -75 -30z" />
    <glyph glyph-name="u" unicode="u" horiz-adv-x="528" 
d="M442 0h-30v74q-33 -37 -80 -61.5t-95 -24.5q-75 0 -113 36.5t-38 119.5v339h30v-339q0 -72 32 -100.5t93 -28.5q48 0 96.5 25.5t74.5 62.5v380h30v-483z" />
    <glyph glyph-name="v" unicode="v" horiz-adv-x="471" 
d="M253 0h-35l-207 483h35l190 -448l189 448h35z" />
    <glyph glyph-name="w" unicode="w" horiz-adv-x="704" 
d="M522 0h-24l-146 438l-146 -438h-24l-160 483h33l140 -436l145 436h24l145 -436l140 436h33z" />
    <glyph glyph-name="x" unicode="x" horiz-adv-x="472" 
d="M450 0h-39l-175 228l-175 -228h-39l197 248l-186 235h39l164 -214l164 214h39l-186 -235z" />
    <glyph glyph-name="y" unicode="y" horiz-adv-x="471" 
d="M50 -189l6 28q18 -8 42 -8q25 0 42.5 14.5t33.5 51.5l44 100l-207 486h35l190 -448l189 448h35l-256 -597q-36 -82 -106 -82q-27 0 -48 7z" />
    <glyph glyph-name="z" unicode="z" horiz-adv-x="466" 
d="M406 0h-346v27l307 429h-307v27h342v-27l-309 -429h313v-27z" />
    <glyph glyph-name="braceleft" unicode="{" horiz-adv-x="237" 
d="M220 -190h-62q-39 0 -69 32t-30 81v234q0 30 -13.5 51t-38.5 21v30q25 0 38.5 21t13.5 51v234q0 49 30 81t69 32h62v-30h-62q-28 0 -48.5 -24t-20.5 -59v-234q0 -68 -45 -87q45 -19 45 -87v-234q0 -35 20.5 -59t48.5 -24h62v-30z" />
    <glyph glyph-name="bar" unicode="|" horiz-adv-x="206" 
d="M118 -20h-30v707h30v-707z" />
    <glyph glyph-name="braceright" unicode="}" horiz-adv-x="237" 
d="M17 -190v30h62q28 0 48.5 24t20.5 59v234q0 68 45 87q-45 19 -45 87v234q0 35 -20.5 59t-48.5 24h-62v30h62q39 0 69 -32t30 -81v-234q0 -30 13.5 -51t38.5 -21v-30q-25 0 -38.5 -21t-13.5 -51v-234q0 -49 -30 -81t-69 -32h-62z" />
    <glyph glyph-name="asciitilde" unicode="~" horiz-adv-x="496" 
d="M438 667l30 -3q-7 -68 -19 -115.5t-40 -81.5t-70 -34q-41 0 -66.5 31.5t-35.5 69.5t-30 69.5t-50 31.5q-79 0 -99 -204l-30 5q10 105 39.5 167t89.5 62q33 0 56 -21t34.5 -50.5t22 -59.5t27.5 -51t42 -21q42 0 65.5 50.5t33.5 154.5z" />
    <glyph glyph-name="nbspace" unicode="&#xa0;" horiz-adv-x="260" 
 />
    <glyph glyph-name="exclamdown" unicode="&#xa1;" horiz-adv-x="208" 
d="M83 -184l11 506h20l11 -506h-42zM71 459q0 13 9.5 23t23.5 10t23.5 -10t9.5 -23t-10 -22.5t-23 -9.5t-23 9.5t-10 22.5z" />
    <glyph glyph-name="cent" unicode="&#xa2;" horiz-adv-x="493" 
d="M262 -100v90q-92 10 -147 81t-55 171t55 170.5t147 80.5v72h30v-70q96 -1 161 -81l-22 -18q-53 70 -139 72v-453q85 0 139 73l22 -19q-65 -80 -161 -81v-88h-30zM93 242q0 -89 45.5 -152.5t123.5 -73.5v450q-79 -10 -124 -72.5t-45 -151.5z" />
    <glyph glyph-name="sterling" unicode="&#xa3;" horiz-adv-x="491" 
d="M17 267v30h143q-7 8 -34 36t-38.5 43.5t-24 46.5t-12.5 66q0 75 58.5 131.5t149.5 56.5q55 0 103.5 -28.5t71.5 -75.5l-26 -18q-15 36 -56 64t-93 28q-73 0 -124 -42.5t-51 -115.5q0 -33 12 -63t26 -47t37.5 -42.5t34.5 -39.5h152v-30h-132q15 -32 15 -64
q0 -50 -22.5 -84t-63.5 -65q28 10 55 10q35 0 83.5 -24t78.5 -24q32 0 62 14t42 29l18 -27q-48 -46 -124 -46q-46 0 -90 24t-88 24q-39 0 -119 -41l-14 33q76 32 114 78t38 99q0 33 -18 64h-164z" />
    <glyph glyph-name="currency" unicode="&#xa4;" horiz-adv-x="522" 
d="M486 137l-29 -29l-56 57q-60 -51 -140 -51t-140 51l-57 -57l-28 29l56 56q-50 63 -50 140q0 79 50 140l-56 57l28 28l57 -56q59 50 140 50q79 0 140 -50l56 56l29 -28l-56 -57q50 -61 50 -140q0 -77 -50 -140zM432 333q0 71 -50 121t-121 50t-121 -50t-50 -121t50 -121
t121 -50t121 50t50 121z" />
    <glyph glyph-name="yen" unicode="&#xa5;" horiz-adv-x="610" 
d="M321 0h-32v129h-268v30h268v130h-268v30h246l-246 348h41l243 -346l243 346h41l-247 -348h247v-30h-268v-130h268v-30h-268v-129z" />
    <glyph glyph-name="brokenbar" unicode="&#xa6;" horiz-adv-x="206" 
d="M118 -20h-30v316h30v-316zM118 371h-30v316h30v-316z" />
    <glyph glyph-name="section" unicode="&#xa7;" horiz-adv-x="454" 
d="M394 306q0 -88 -100 -127q50 -18 75 -46.5t25 -74.5q0 -65 -47.5 -102t-125.5 -37q-65 0 -104.5 20t-72.5 57l24 22q54 -72 153 -72q63 0 103 30.5t40 81.5q0 40 -32 64.5t-77.5 36t-91 24t-77.5 40.5t-32 75q0 52 35.5 84.5t94.5 45.5q-64 18 -97 45t-33 76q0 54 43 91
t121 37q108 0 166 -73l-22 -20q-48 66 -144 66q-58 0 -96 -28.5t-38 -74.5q0 -37 32 -58.5t77.5 -32t91 -23t77.5 -44t32 -83.5zM364 309q0 25 -11.5 43.5t-35 31t-41.5 19t-50 14.5q-79 -21 -110.5 -50t-31.5 -71q0 -23 12.5 -40t34 -27.5t49 -18.5t58.5 -16q15 -3 22 -5
q104 45 104 120z" />
    <glyph glyph-name="dieresis" unicode="&#xa8;" horiz-adv-x="252" 
d="M255 598q0 -11 -8.5 -19.5t-19.5 -8.5t-19.5 8.5t-8.5 19.5t8.5 19.5t19.5 8.5t19.5 -8.5t8.5 -19.5zM53 598q0 -11 -8.5 -19.5t-19.5 -8.5t-19.5 8.5t-8.5 19.5t8.5 19.5t19.5 8.5t19.5 -8.5t8.5 -19.5z" />
    <glyph glyph-name="copyright" unicode="&#xa9;" horiz-adv-x="778" 
d="M734 334q0 -143 -101 -244t-244 -101t-244 101.5t-101 243.5q0 143 101 244t244 101t244 -101t101 -244zM708 334q0 132 -93.5 225.5t-225.5 93.5q-131 0 -225 -93.5t-94 -225.5q0 -131 94 -225t225 -94q132 0 225.5 94t93.5 225zM513 204l20 -20q-56 -65 -144 -65
q-87 0 -147.5 63t-60.5 154t60.5 152.5t147.5 61.5q89 0 144 -64l-20 -20q-19 26 -53.5 41.5t-70.5 15.5q-73 0 -126 -52.5t-53 -135.5q0 -81 53.5 -135t125.5 -54q36 0 70.5 16t53.5 42z" />
    <glyph glyph-name="ordfeminine" unicode="&#xaa;" horiz-adv-x="372" 
d="M303 326h-27v38q-45 -46 -113 -46q-45 0 -79 29t-34 76q0 48 33.5 76t79.5 28q68 0 113 -46v68q0 35 -27 54.5t-63 19.5q-64 0 -103 -50l-18 19q48 56 122 56q52 0 84 -25t32 -74v-223zM172 340q67 0 104 46v73q-37 46 -104 46q-41 0 -67 -23.5t-26 -58.5
q0 -36 25.5 -59.5t67.5 -23.5z" />
    <glyph glyph-name="guillemotleft" unicode="&#xab;" horiz-adv-x="364" 
d="M334 63h-39l-160 180l160 177h39l-160 -177zM229 63h-39l-160 180l160 177h39l-160 -177z" />
    <glyph glyph-name="logicalnot" unicode="&#xac;" horiz-adv-x="494" 
d="M465 448v-228h-32v198h-404v30h436z" />
    <glyph glyph-name="registered" unicode="&#xae;" horiz-adv-x="494" 
d="M459 465q0 -88 -62 -150t-150 -62t-150 62t-62 150t62 150t150 62q89 0 150.5 -61.5t61.5 -150.5zM433 465q0 78 -54.5 132t-131.5 54t-131.5 -54t-54.5 -132q0 -77 54.5 -131.5t131.5 -54.5t131.5 54.5t54.5 131.5zM343 343h-37l-63 96h-47v-96h-29v243h99
q31 0 52.5 -20.5t21.5 -53.5q0 -35 -22.5 -53.5t-39.5 -18.5zM310 512q0 20 -14 33.5t-30 13.5h-70v-92h70q16 0 30 13.5t14 31.5z" />
    <glyph glyph-name="macron" unicode="&#xaf;" horiz-adv-x="363" 
d="M363 591h-363v27h363v-27z" />
    <glyph glyph-name="macron" unicode="&#x203e;" horiz-adv-x="363" 
d="M363 591h-363v27h363v-27z" />
    <glyph glyph-name="degree" unicode="&#xb0;" horiz-adv-x="273" 
d="M247 566q0 -46 -32.5 -78t-78.5 -32t-78 32t-32 78t32 78.5t78 32.5t78.5 -32.5t32.5 -78.5zM217 566q0 33 -24 57t-57 24t-56.5 -24t-23.5 -57t23.5 -56.5t56.5 -23.5t57 23.5t24 56.5z" />
    <glyph glyph-name="plusminus" unicode="&#xb1;" horiz-adv-x="494" 
d="M465 322h-202v-222h-32v222h-202v30h202v216h32v-216h202v-30zM465 0h-436v30h436v-30z" />
    <glyph glyph-name="twosuperior" unicode="&#xb2;" 
d="M325 421h-271v24q119 86 179.5 149t60.5 120q0 44 -29.5 65.5t-70.5 21.5q-78 0 -114 -53l-20 18q43 61 135 61q50 0 89 -28t39 -84q0 -64 -57.5 -126t-167.5 -142h227v-26z" />
    <glyph glyph-name="threesuperior" unicode="&#xb3;" 
d="M326 528q0 -51 -37 -82.5t-101 -31.5q-48 0 -84 18.5t-54 47.5l20 17q40 -57 118 -57q50 0 79 23.5t29 64.5q0 44 -33 65.5t-84 21.5q-30 0 -36 -1v27q6 -1 36 -1q48 0 79.5 20t31.5 61q0 37 -30 58.5t-73 21.5q-67 0 -113 -52l-19 18q51 60 133 60q55 0 93 -28.5
t38 -76.5q0 -43 -28 -66t-61 -28q33 -3 64.5 -28.5t31.5 -71.5z" />
    <glyph glyph-name="acute" unicode="&#xb4;" horiz-adv-x="205" 
d="M205 700l-175 -144h-30l160 144h45z" />
    <glyph glyph-name="mu" unicode="&#xb5;" horiz-adv-x="528" 
d="M116 -184h-30v667h30v-339q0 -72 32 -101.5t93 -29.5q48 0 96.5 26.5t74.5 63.5v380h30v-483h-30v74q-33 -37 -80 -61.5t-95 -24.5q-86 0 -121 45v-217z" />
    <glyph glyph-name="mu" unicode="&#x3bc;" horiz-adv-x="528" 
d="M116 -184h-30v667h30v-339q0 -72 32 -101.5t93 -29.5q48 0 96.5 26.5t74.5 63.5v380h30v-483h-30v74q-33 -37 -80 -61.5t-95 -24.5q-86 0 -121 45v-217z" />
    <glyph glyph-name="paragraph" unicode="&#xb6;" horiz-adv-x="449" 
d="M357 -100h-30v737h-98v-737h-30v423q-71 0 -121.5 50.5t-50.5 121.5t50.5 121.5t121.5 50.5h158v-767z" />
    <glyph glyph-name="periodcentered" unicode="&#xb7;" horiz-adv-x="208" 
d="M137 245q0 -13 -9.5 -23t-23.5 -10t-23.5 10t-9.5 23t10 22.5t23 9.5t23 -9.5t10 -22.5z" />
    <glyph glyph-name="periodcentered" unicode="&#x2219;" horiz-adv-x="208" 
d="M137 245q0 -13 -9.5 -23t-23.5 -10t-23.5 10t-9.5 23t10 22.5t23 9.5t23 -9.5t10 -22.5z" />
    <glyph glyph-name="cedilla" unicode="&#xb8;" horiz-adv-x="191" 
d="M93 -187q-58 0 -93 28l14 27q32 -28 79 -28q29 0 49 13.5t20 35.5q0 43 -44 43q-27 0 -43 -19l-22 13l31 85h30l-26 -69q15 12 38 12q29 0 47 -17.5t18 -47.5q0 -33 -28 -54.5t-70 -21.5z" />
    <glyph glyph-name="onesuperior" unicode="&#xb9;" horiz-adv-x="192" 
d="M132 421h-30v360l-63 -69l-19 20l85 89h27v-400z" />
    <glyph glyph-name="ordmasculine" unicode="&#xba;" horiz-adv-x="405" 
d="M202 318q-68 0 -111 47.5t-43 117.5q0 71 43 118t111 47q69 0 112 -47t43 -118q0 -70 -43 -117.5t-112 -47.5zM202 344q58 0 92 40.5t34 98.5t-34 98t-92 40q-57 0 -90.5 -40t-33.5 -98t33.5 -98.5t90.5 -40.5z" />
    <glyph glyph-name="guillemotright" unicode="&#xbb;" horiz-adv-x="364" 
d="M229 243l-160 -180h-39l160 180l-160 177h39zM334 243l-160 -180h-39l160 180l-160 177h39z" />
    <glyph glyph-name="onequarter" unicode="&#xbc;" horiz-adv-x="715" 
d="M546 667l-427 -667h-36l426 667h37zM669 113h-62v-113h-29v113h-196v26l186 261h39v-261h62v-26zM578 139v232l-165 -232h165zM132 267h-30v360l-63 -69l-19 20l85 89h27v-400z" />
    <glyph glyph-name="onehalf" unicode="&#xbd;" horiz-adv-x="755" 
d="M546 667l-427 -667h-36l426 667h37zM700 0h-271v24q119 86 179.5 149t60.5 120q0 44 -29.5 65.5t-70.5 21.5q-78 0 -114 -53l-20 18q43 61 135 61q50 0 89 -28t39 -84q0 -64 -57.5 -126t-167.5 -142h227v-26zM132 267h-30v360l-63 -69l-19 20l85 89h27v-400z" />
    <glyph glyph-name="threequarters" unicode="&#xbe;" horiz-adv-x="841" 
d="M672 667l-427 -667h-36l426 667h37zM795 113h-62v-113h-29v113h-196v26l186 261h39v-261h62v-26zM704 139v232l-165 -232h165zM326 374q0 -51 -37 -82.5t-101 -31.5q-48 0 -84 18.5t-54 47.5l20 17q40 -57 118 -57q50 0 79 23.5t29 64.5q0 44 -33 65.5t-84 21.5
q-30 0 -36 -1v27q6 -1 36 -1q48 0 79.5 20t31.5 61q0 37 -30 58.5t-73 21.5q-67 0 -113 -52l-19 18q51 60 133 60q55 0 93 -28.5t38 -76.5q0 -43 -28 -66t-61 -28q33 -3 64.5 -28.5t31.5 -71.5z" />
    <glyph glyph-name="questiondown" unicode="&#xbf;" horiz-adv-x="391" 
d="M242 312q44 -33 44 -76q0 -37 -21.5 -67t-52.5 -50.5t-62 -42t-52.5 -52t-21.5 -68.5q0 -52 40 -87.5t111 -35.5q68 0 112.5 25t78.5 73l23 -21q-75 -107 -214 -107q-85 0 -135.5 44.5t-50.5 108.5q0 36 16 66.5t40 50t51.5 39.5t51.5 36.5t40 39t16 48.5q0 30 -33 53z
M245 492q13 0 23 -10t10 -23t-10 -22.5t-23 -9.5t-23 9.5t-10 22.5t10 23t23 10z" />
    <glyph glyph-name="Agrave" unicode="&#xc0;" horiz-adv-x="636" 
d="M371 728h-30l-175 144h45zM615 0h-37l-74 179h-372l-74 -179h-37l278 667h38zM492 209l-174 421l-174 -421h348z" />
    <glyph glyph-name="Aacute" unicode="&#xc1;" horiz-adv-x="636" 
d="M471 872l-175 -144h-30l160 144h45zM615 0h-37l-74 179h-372l-74 -179h-37l278 667h38zM492 209l-174 421l-174 -421h348z" />
    <glyph glyph-name="Acircumflex" unicode="&#xc2;" horiz-adv-x="636" 
d="M437 728h-28l-91 120l-88 -120h-28l98 144h36zM615 0h-37l-74 179h-372l-74 -179h-37l278 667h38zM492 209l-174 421l-174 -421h348z" />
    <glyph glyph-name="Atilde" unicode="&#xc3;" horiz-adv-x="636" 
d="M381 726q-26 0 -44.5 17.5t-27 39t-23 39t-33.5 17.5q-26 0 -42.5 -26.5t-16.5 -80.5h-26q0 57 23.5 95.5t64.5 38.5q26 0 44.5 -17.5t27 -39t23 -39t33.5 -17.5q26 0 42.5 26.5t16.5 80.5h26q0 -57 -23.5 -95.5t-64.5 -38.5zM615 0h-37l-74 179h-372l-74 -179h-37
l278 667h38zM492 209l-174 421l-174 -421h348z" />
    <glyph glyph-name="Adieresis" unicode="&#xc4;" horiz-adv-x="636" 
d="M448 764q0 -11 -8.5 -19.5t-19.5 -8.5t-19.5 8.5t-8.5 19.5t8.5 19.5t19.5 8.5t19.5 -8.5t8.5 -19.5zM246 764q0 -11 -8.5 -19.5t-19.5 -8.5t-19.5 8.5t-8.5 19.5t8.5 19.5t19.5 8.5t19.5 -8.5t8.5 -19.5zM615 0h-37l-74 179h-372l-74 -179h-37l278 667h38zM492 209
l-174 421l-174 -421h348z" />
    <glyph glyph-name="Aring" unicode="&#xc5;" horiz-adv-x="636" 
d="M319 692q-38 0 -65.5 27.5t-27.5 65.5t27.5 65.5t65.5 27.5t65 -27.5t27 -65.5t-27 -65.5t-65 -27.5zM319 716q28 0 48 20t20 49t-20 49t-48 20q-29 0 -49 -20t-20 -49t20 -49t49 -20zM615 0h-37l-74 179h-372l-74 -179h-37l278 667h38zM492 209l-174 421l-174 -421h348z
" />
    <glyph glyph-name="AE" unicode="&#xc6;" horiz-adv-x="930" 
d="M865 0h-408v179h-286l-113 -179h-37l425 667h419v-30h-376v-279h369v-30h-369v-298h376v-30zM457 209v421l-269 -421h269z" />
    <glyph glyph-name="Ccedilla" unicode="&#xc7;" horiz-adv-x="667" 
d="M392 -183q-58 0 -93 28l14 27q32 -28 79 -28q29 0 49 13.5t20 35.5q0 43 -44 43q-27 0 -43 -19l-22 13l21 59q-132 9 -220 104.5t-88 239.5q0 151 96 248t237 97t232 -105l-25 -22q-36 45 -90.5 71t-116.5 26q-127 0 -212.5 -88t-85.5 -227q0 -138 85.5 -226.5
t212.5 -88.5q62 0 116.5 26t90.5 71l26 -21q-93 -105 -228 -106l-16 -42q15 12 38 12q29 0 47 -17.5t18 -47.5q0 -33 -28 -54.5t-70 -21.5z" />
    <glyph glyph-name="Egrave" unicode="&#xc8;" horiz-adv-x="558" 
d="M344 728h-30l-175 144h45zM496 0h-408v667h408v-30h-376v-279h369v-30h-369v-298h376v-30z" />
    <glyph glyph-name="Eacute" unicode="&#xc9;" horiz-adv-x="558" 
d="M444 872l-175 -144h-30l160 144h45zM496 0h-408v667h408v-30h-376v-279h369v-30h-369v-298h376v-30z" />
    <glyph glyph-name="Ecircumflex" unicode="&#xca;" horiz-adv-x="558" 
d="M408 728h-28l-91 120l-88 -120h-28l98 144h36zM496 0h-408v667h408v-30h-376v-279h369v-30h-369v-298h376v-30z" />
    <glyph glyph-name="Edieresis" unicode="&#xcb;" horiz-adv-x="558" 
d="M419 764q0 -11 -8.5 -19.5t-19.5 -8.5t-19.5 8.5t-8.5 19.5t8.5 19.5t19.5 8.5t19.5 -8.5t8.5 -19.5zM217 764q0 -11 -8.5 -19.5t-19.5 -8.5t-19.5 8.5t-8.5 19.5t8.5 19.5t19.5 8.5t19.5 -8.5t8.5 -19.5zM496 0h-408v667h408v-30h-376v-279h369v-30h-369v-298h376v-30z
" />
    <glyph glyph-name="Igrave" unicode="&#xcc;" horiz-adv-x="208" 
d="M157 728h-30l-175 144h45zM120 0h-32v667h32v-667z" />
    <glyph glyph-name="Iacute" unicode="&#xcd;" horiz-adv-x="208" 
d="M257 872l-175 -144h-30l160 144h45zM120 0h-32v667h32v-667z" />
    <glyph glyph-name="Icircumflex" unicode="&#xce;" horiz-adv-x="208" 
d="M223 728h-28l-91 120l-88 -120h-28l98 144h36zM120 0h-32v667h32v-667z" />
    <glyph glyph-name="Idieresis" unicode="&#xcf;" horiz-adv-x="208" 
d="M233 764q0 -11 -8.5 -19.5t-19.5 -8.5t-19.5 8.5t-8.5 19.5t8.5 19.5t19.5 8.5t19.5 -8.5t8.5 -19.5zM31 764q0 -11 -8.5 -19.5t-19.5 -8.5t-19.5 8.5t-8.5 19.5t8.5 19.5t19.5 8.5t19.5 -8.5t8.5 -19.5zM120 0h-32v667h32v-667z" />
    <glyph glyph-name="Eth" unicode="&#xd0;" horiz-adv-x="715" 
d="M317 0h-198v319h-107v30h107v318h198q150 0 241 -97.5t91 -236.5q0 -140 -90.5 -236.5t-241.5 -96.5zM339 319h-188v-289h166q138 0 217.5 86t79.5 217q0 130 -80 217t-217 87h-166v-288h188v-30z" />
    <glyph glyph-name="Ntilde" unicode="&#xd1;" horiz-adv-x="690" 
d="M406 726q-26 0 -44.5 17.5t-27 39t-23 39t-33.5 17.5q-26 0 -42.5 -26.5t-16.5 -80.5h-26q0 57 23.5 95.5t64.5 38.5q26 0 44.5 -17.5t27 -39t23 -39t33.5 -17.5q26 0 42.5 26.5t16.5 80.5h26q0 -57 -23.5 -95.5t-64.5 -38.5zM602 0h-32l-450 615v-615h-32v667h32
l450 -609v609h32v-667z" />
    <glyph glyph-name="Ograve" unicode="&#xd2;" horiz-adv-x="764" 
d="M439 728h-30l-175 144h45zM382 -12q-143 0 -230 98.5t-87 246.5t87 246.5t230 98.5q142 0 229.5 -98.5t87.5 -246.5t-87.5 -246.5t-229.5 -98.5zM382 18q127 0 204.5 88.5t77.5 226.5q0 139 -77.5 227t-204.5 88q-128 0 -205 -88t-77 -227q0 -138 77 -226.5t205 -88.5z
" />
    <glyph glyph-name="Oacute" unicode="&#xd3;" horiz-adv-x="764" 
d="M536 872l-175 -144h-30l160 144h45zM382 -12q-143 0 -230 98.5t-87 246.5t87 246.5t230 98.5q142 0 229.5 -98.5t87.5 -246.5t-87.5 -246.5t-229.5 -98.5zM382 18q127 0 204.5 88.5t77.5 226.5q0 139 -77.5 227t-204.5 88q-128 0 -205 -88t-77 -227q0 -138 77 -226.5
t205 -88.5z" />
    <glyph glyph-name="Ocircumflex" unicode="&#xd4;" horiz-adv-x="764" 
d="M501 728h-28l-91 120l-88 -120h-28l98 144h36zM382 -12q-143 0 -230 98.5t-87 246.5t87 246.5t230 98.5q142 0 229.5 -98.5t87.5 -246.5t-87.5 -246.5t-229.5 -98.5zM382 18q127 0 204.5 88.5t77.5 226.5q0 139 -77.5 227t-204.5 88q-128 0 -205 -88t-77 -227
q0 -138 77 -226.5t205 -88.5z" />
    <glyph glyph-name="Otilde" unicode="&#xd5;" horiz-adv-x="764" 
d="M445 726q-26 0 -44.5 17.5t-27 39t-23 39t-33.5 17.5q-26 0 -42.5 -26.5t-16.5 -80.5h-26q0 57 23.5 95.5t64.5 38.5q26 0 44.5 -17.5t27 -39t23 -39t33.5 -17.5q26 0 42.5 26.5t16.5 80.5h26q0 -57 -23.5 -95.5t-64.5 -38.5zM382 -12q-143 0 -230 98.5t-87 246.5
t87 246.5t230 98.5q142 0 229.5 -98.5t87.5 -246.5t-87.5 -246.5t-229.5 -98.5zM382 18q127 0 204.5 88.5t77.5 226.5q0 139 -77.5 227t-204.5 88q-128 0 -205 -88t-77 -227q0 -138 77 -226.5t205 -88.5z" />
    <glyph glyph-name="Odieresis" unicode="&#xd6;" horiz-adv-x="764" 
d="M509 764q0 -11 -8.5 -19.5t-19.5 -8.5t-19.5 8.5t-8.5 19.5t8.5 19.5t19.5 8.5t19.5 -8.5t8.5 -19.5zM307 764q0 -11 -8.5 -19.5t-19.5 -8.5t-19.5 8.5t-8.5 19.5t8.5 19.5t19.5 8.5t19.5 -8.5t8.5 -19.5zM382 -12q-143 0 -230 98.5t-87 246.5t87 246.5t230 98.5
q142 0 229.5 -98.5t87.5 -246.5t-87.5 -246.5t-229.5 -98.5zM382 18q127 0 204.5 88.5t77.5 226.5q0 139 -77.5 227t-204.5 88q-128 0 -205 -88t-77 -227q0 -138 77 -226.5t205 -88.5z" />
    <glyph glyph-name="multiply" unicode="&#xd7;" horiz-adv-x="494" 
d="M402 158l-155 155l-155 -155l-21 21l155 155l-155 155l21 21l155 -155l155 155l21 -21l-155 -155l155 -155z" />
    <glyph glyph-name="Oslash" unicode="&#xd8;" horiz-adv-x="764" 
d="M382 -12q-92 0 -163 43l-18 -31h-36l29 48q-62 47 -95.5 121t-33.5 164q0 148 87 246.5t230 98.5q89 0 162 -43l19 32h36l-30 -50q62 -46 96 -120.5t34 -163.5q0 -148 -87.5 -246.5t-229.5 -98.5zM382 18q127 0 204.5 88.5t77.5 226.5q0 169 -111 258l-318 -534
q64 -39 147 -39zM100 333q0 -170 110 -258l318 534q-64 39 -146 39q-128 0 -205 -88t-77 -227z" />
    <glyph glyph-name="Ugrave" unicode="&#xd9;" horiz-adv-x="672" 
d="M390 728h-30l-175 144h45zM336 -12q-120 0 -184 70t-64 195v414h32v-414q0 -112 56 -173.5t160 -61.5t160 61.5t56 173.5v414h32v-414q0 -125 -64 -195t-184 -70z" />
    <glyph glyph-name="Uacute" unicode="&#xda;" horiz-adv-x="672" 
d="M487 872l-175 -144h-30l160 144h45zM336 -12q-120 0 -184 70t-64 195v414h32v-414q0 -112 56 -173.5t160 -61.5t160 61.5t56 173.5v414h32v-414q0 -125 -64 -195t-184 -70z" />
    <glyph glyph-name="Ucircumflex" unicode="&#xdb;" horiz-adv-x="672" 
d="M457 728h-28l-91 120l-88 -120h-28l98 144h36zM336 -12q-120 0 -184 70t-64 195v414h32v-414q0 -112 56 -173.5t160 -61.5t160 61.5t56 173.5v414h32v-414q0 -125 -64 -195t-184 -70z" />
    <glyph glyph-name="Udieresis" unicode="&#xdc;" horiz-adv-x="672" 
d="M465 764q0 -11 -8.5 -19.5t-19.5 -8.5t-19.5 8.5t-8.5 19.5t8.5 19.5t19.5 8.5t19.5 -8.5t8.5 -19.5zM263 764q0 -11 -8.5 -19.5t-19.5 -8.5t-19.5 8.5t-8.5 19.5t8.5 19.5t19.5 8.5t19.5 -8.5t8.5 -19.5zM336 -12q-120 0 -184 70t-64 195v414h32v-414q0 -112 56 -173.5
t160 -61.5t160 61.5t56 173.5v414h32v-414q0 -125 -64 -195t-184 -70z" />
    <glyph glyph-name="Yacute" unicode="&#xdd;" horiz-adv-x="610" 
d="M462 872l-175 -144h-30l160 144h45zM321 0h-32v289l-268 378h41l243 -346l243 346h41l-268 -378v-289z" />
    <glyph glyph-name="Thorn" unicode="&#xde;" horiz-adv-x="555" 
d="M120 0h-32v667h32v-129h199q90 0 142.5 -55t52.5 -135q0 -79 -53 -133.5t-142 -54.5h-199v-160zM318 190q73 0 117 44t44 114t-44 115t-117 45h-198v-318h198z" />
    <glyph glyph-name="germandbls" unicode="&#xdf;" horiz-adv-x="558" 
d="M536 127q0 -57 -43 -98t-130 -41q-65 0 -104.5 20t-72.5 57l24 22q55 -72 153 -72q69 0 106 33t37 79q0 41 -32 65t-77.5 35.5t-91 24t-77.5 40.5t-32 75q0 38 26 67t57 44.5t57 38.5t26 50q0 38 -36.5 60.5t-81.5 22.5q-54 0 -91 -36t-37 -95v-519h-30v519q0 68 44 113
t114 45q62 0 105 -30.5t43 -79.5q0 -36 -26 -62.5t-57 -41t-57 -40t-26 -58.5q0 -37 32 -58.5t77.5 -32t91 -23t77.5 -43t32 -81.5z" />
    <glyph glyph-name="agrave" unicode="&#xe0;" horiz-adv-x="514" 
d="M428 0h-30v59q-65 -71 -167 -71q-68 0 -118.5 43.5t-50.5 117.5t50 117.5t119 43.5q102 0 167 -71v109q0 56 -39 88t-97 32q-92 0 -155 -76l-23 20q37 43 78 63t100 20q74 0 120 -37.5t46 -108.5v-349zM239 15q103 0 159 74v120q-56 74 -159 74q-65 0 -104.5 -38.5
t-39.5 -95.5t39.5 -95.5t104.5 -38.5zM315 556h-30l-175 144h45z" />
    <glyph glyph-name="aacute" unicode="&#xe1;" horiz-adv-x="514" 
d="M428 0h-30v59q-65 -71 -167 -71q-68 0 -118.5 43.5t-50.5 117.5t50 117.5t119 43.5q102 0 167 -71v109q0 56 -39 88t-97 32q-92 0 -155 -76l-23 20q37 43 78 63t100 20q74 0 120 -37.5t46 -108.5v-349zM239 15q103 0 159 74v120q-56 74 -159 74q-65 0 -104.5 -38.5
t-39.5 -95.5t39.5 -95.5t104.5 -38.5zM413 700l-175 -144h-30l160 144h45z" />
    <glyph glyph-name="acircumflex" unicode="&#xe2;" horiz-adv-x="514" 
d="M428 0h-30v59q-65 -71 -167 -71q-68 0 -118.5 43.5t-50.5 117.5t50 117.5t119 43.5q102 0 167 -71v109q0 56 -39 88t-97 32q-92 0 -155 -76l-23 20q37 43 78 63t100 20q74 0 120 -37.5t46 -108.5v-349zM239 15q103 0 159 74v120q-56 74 -159 74q-65 0 -104.5 -38.5
t-39.5 -95.5t39.5 -95.5t104.5 -38.5zM381 556h-28l-91 120l-88 -120h-28l98 144h36z" />
    <glyph glyph-name="atilde" unicode="&#xe3;" horiz-adv-x="514" 
d="M428 0h-30v59q-65 -71 -167 -71q-68 0 -118.5 43.5t-50.5 117.5t50 117.5t119 43.5q102 0 167 -71v109q0 56 -39 88t-97 32q-92 0 -155 -76l-23 20q37 43 78 63t100 20q74 0 120 -37.5t46 -108.5v-349zM239 15q103 0 159 74v120q-56 74 -159 74q-65 0 -104.5 -38.5
t-39.5 -95.5t39.5 -95.5t104.5 -38.5zM324 554q-26 0 -44.5 17.5t-27 39t-23 39t-33.5 17.5q-26 0 -42.5 -26.5t-16.5 -80.5h-26q0 57 23.5 95.5t64.5 38.5q26 0 44.5 -17.5t27 -39t23 -39t33.5 -17.5q26 0 42.5 26.5t16.5 80.5h26q0 -57 -23.5 -95.5t-64.5 -38.5z" />
    <glyph glyph-name="adieresis" unicode="&#xe4;" horiz-adv-x="514" 
d="M428 0h-30v59q-65 -71 -167 -71q-68 0 -118.5 43.5t-50.5 117.5t50 117.5t119 43.5q102 0 167 -71v109q0 56 -39 88t-97 32q-92 0 -155 -76l-23 20q37 43 78 63t100 20q74 0 120 -37.5t46 -108.5v-349zM239 15q103 0 159 74v120q-56 74 -159 74q-65 0 -104.5 -38.5
t-39.5 -95.5t39.5 -95.5t104.5 -38.5zM389 598q0 -11 -8.5 -19.5t-19.5 -8.5t-19.5 8.5t-8.5 19.5t8.5 19.5t19.5 8.5t19.5 -8.5t8.5 -19.5zM187 598q0 -11 -8.5 -19.5t-19.5 -8.5t-19.5 8.5t-8.5 19.5t8.5 19.5t19.5 8.5t19.5 -8.5t8.5 -19.5z" />
    <glyph glyph-name="aring" unicode="&#xe5;" horiz-adv-x="514" 
d="M428 0h-30v59q-65 -71 -167 -71q-68 0 -118.5 43.5t-50.5 117.5t50 117.5t119 43.5q102 0 167 -71v109q0 56 -39 88t-97 32q-92 0 -155 -76l-23 20q37 43 78 63t100 20q74 0 120 -37.5t46 -108.5v-349zM239 15q103 0 159 74v120q-56 74 -159 74q-65 0 -104.5 -38.5
t-39.5 -95.5t39.5 -95.5t104.5 -38.5zM261 553q-38 0 -65.5 27.5t-27.5 65.5t27.5 65.5t65.5 27.5t65 -27.5t27 -65.5t-27 -65.5t-65 -27.5zM261 577q28 0 48 20t20 49t-20 49t-48 20q-29 0 -49 -20.5t-20 -48.5t20 -48.5t49 -20.5z" />
    <glyph glyph-name="ae" unicode="&#xe6;" horiz-adv-x="905" 
d="M845 232h-417q2 -92 57.5 -154.5t145.5 -62.5q100 0 168 73l18 -19q-78 -81 -186 -81q-130 0 -200 111q-67 -111 -200 -111q-68 0 -118.5 44t-50.5 118t50 117t119 43q102 0 167 -69v107q0 56 -39 88t-97 32q-92 0 -155 -76l-23 20q37 43 78 63t100 20q72 0 115.5 -33
t47.5 -96q26 56 77 92.5t119 36.5q106 0 165 -73t59 -180v-10zM428 259h385q0 49 -20 95.5t-65.5 80t-107.5 33.5q-87 0 -138 -64.5t-54 -144.5zM418 125q-20 38 -20 82q-56 76 -159 76q-65 0 -104.5 -38.5t-39.5 -95.5t39.5 -95.5t104.5 -38.5q119 0 179 110z" />
    <glyph glyph-name="ccedilla" unicode="&#xe7;" horiz-adv-x="493" 
d="M288 -185q-58 0 -93 28l14 27q32 -28 79 -28q29 0 49 13.5t20 35.5q0 43 -44 43q-27 0 -43 -19l-22 13l22 61q-95 7 -152.5 79t-57.5 174q0 107 63 180t165 73q56 0 94 -20t71 -61l-22 -18q-53 72 -141 72q-91 0 -144 -64.5t-53 -161.5q0 -98 53.5 -162.5t143.5 -64.5
q87 0 141 73l22 -19q-61 -77 -154 -81l-16 -44q15 12 38 12q29 0 47 -17.5t18 -47.5q0 -33 -28 -54.5t-70 -21.5z" />
    <glyph glyph-name="egrave" unicode="&#xe8;" horiz-adv-x="571" 
d="M297 -12q-105 0 -171 71.5t-66 182.5q0 106 65 179.5t162 73.5q106 0 165 -73t59 -180v-10h-417q2 -92 57.5 -154.5t145.5 -62.5q100 0 168 73l18 -19q-78 -81 -186 -81zM479 259q0 49 -20 95.5t-65.5 80t-107.5 33.5q-87 0 -138 -64.5t-54 -144.5h385zM341 556h-30
l-175 144h45z" />
    <glyph glyph-name="eacute" unicode="&#xe9;" horiz-adv-x="571" 
d="M297 -12q-105 0 -171 71.5t-66 182.5q0 106 65 179.5t162 73.5q106 0 165 -73t59 -180v-10h-417q2 -92 57.5 -154.5t145.5 -62.5q100 0 168 73l18 -19q-78 -81 -186 -81zM479 259q0 49 -20 95.5t-65.5 80t-107.5 33.5q-87 0 -138 -64.5t-54 -144.5h385zM440 700
l-175 -144h-30l160 144h45z" />
    <glyph glyph-name="ecircumflex" unicode="&#xea;" horiz-adv-x="571" 
d="M297 -12q-105 0 -171 71.5t-66 182.5q0 106 65 179.5t162 73.5q106 0 165 -73t59 -180v-10h-417q2 -92 57.5 -154.5t145.5 -62.5q100 0 168 73l18 -19q-78 -81 -186 -81zM479 259q0 49 -20 95.5t-65.5 80t-107.5 33.5q-87 0 -138 -64.5t-54 -144.5h385zM407 556h-28
l-91 120l-88 -120h-28l98 144h36z" />
    <glyph glyph-name="edieresis" unicode="&#xeb;" horiz-adv-x="571" 
d="M297 -12q-105 0 -171 71.5t-66 182.5q0 106 65 179.5t162 73.5q106 0 165 -73t59 -180v-10h-417q2 -92 57.5 -154.5t145.5 -62.5q100 0 168 73l18 -19q-78 -81 -186 -81zM479 259q0 49 -20 95.5t-65.5 80t-107.5 33.5q-87 0 -138 -64.5t-54 -144.5h385zM417 598
q0 -11 -8.5 -19.5t-19.5 -8.5t-19.5 8.5t-8.5 19.5t8.5 19.5t19.5 8.5t19.5 -8.5t8.5 -19.5zM215 598q0 -11 -8.5 -19.5t-19.5 -8.5t-19.5 8.5t-8.5 19.5t8.5 19.5t19.5 8.5t19.5 -8.5t8.5 -19.5z" />
    <glyph glyph-name="igrave" unicode="&#xec;" horiz-adv-x="202" 
d="M153 556h-30l-175 144h45zM116 0h-30v483h30v-483z" />
    <glyph glyph-name="iacute" unicode="&#xed;" horiz-adv-x="202" 
d="M254 700l-175 -144h-30l160 144h45zM116 0h-30v483h30v-483z" />
    <glyph glyph-name="icircumflex" unicode="&#xee;" horiz-adv-x="202" 
d="M219 556h-28l-91 120l-88 -120h-28l98 144h36zM116 0h-30v483h30v-483z" />
    <glyph glyph-name="idieresis" unicode="&#xef;" horiz-adv-x="202" 
d="M230 598q0 -11 -8.5 -19.5t-19.5 -8.5t-19.5 8.5t-8.5 19.5t8.5 19.5t19.5 8.5t19.5 -8.5t8.5 -19.5zM28 598q0 -11 -8.5 -19.5t-19.5 -8.5t-19.5 8.5t-8.5 19.5t8.5 19.5t19.5 8.5t19.5 -8.5t8.5 -19.5zM116 0h-30v483h30v-483z" />
    <glyph glyph-name="eth" unicode="&#xf0;" horiz-adv-x="570" 
d="M138 522l-11 26l126 56q-41 28 -87 57l18 27q66 -41 103 -69l111 49l11 -26l-97 -43q198 -163 198 -357q0 -109 -62 -181.5t-163 -72.5q-100 0 -162.5 72.5t-62.5 181.5q0 108 62.5 180.5t162.5 72.5q95 0 156 -85q-63 99 -162 174zM285 15q89 0 140.5 66.5t51.5 160.5
q0 93 -51.5 159.5t-140.5 66.5q-88 0 -140 -66.5t-52 -159.5q0 -94 52 -160.5t140 -66.5z" />
    <glyph glyph-name="ntilde" unicode="&#xf1;" horiz-adv-x="528" 
d="M442 0h-30v337q0 72 -32 101.5t-93 29.5q-48 0 -96 -26.5t-75 -64.5v-377h-30v483h30v-76q29 35 78 61.5t97 26.5q75 0 113 -37.5t38 -120.5v-337zM327 554q-26 0 -44.5 17.5t-27 39t-23 39t-33.5 17.5q-26 0 -42.5 -26.5t-16.5 -80.5h-26q0 57 23.5 95.5t64.5 38.5
q26 0 44.5 -17.5t27 -39t23 -39t33.5 -17.5q26 0 42.5 26.5t16.5 80.5h26q0 -57 -23.5 -95.5t-64.5 -38.5z" />
    <glyph glyph-name="ograve" unicode="&#xf2;" horiz-adv-x="570" 
d="M285 -12q-100 0 -162.5 72.5t-62.5 181.5q0 108 62.5 180.5t162.5 72.5q101 0 163 -72t62 -181t-62 -181.5t-163 -72.5zM285 15q89 0 140.5 66.5t51.5 160.5q0 93 -51.5 159.5t-140.5 66.5q-88 0 -140 -66.5t-52 -159.5q0 -94 52 -160.5t140 -66.5zM338 556h-30l-175 144
h45z" />
    <glyph glyph-name="oacute" unicode="&#xf3;" horiz-adv-x="570" 
d="M285 -12q-100 0 -162.5 72.5t-62.5 181.5q0 108 62.5 180.5t162.5 72.5q101 0 163 -72t62 -181t-62 -181.5t-163 -72.5zM285 15q89 0 140.5 66.5t51.5 160.5q0 93 -51.5 159.5t-140.5 66.5q-88 0 -140 -66.5t-52 -159.5q0 -94 52 -160.5t140 -66.5zM438 700l-175 -144
h-30l160 144h45z" />
    <glyph glyph-name="ocircumflex" unicode="&#xf4;" horiz-adv-x="570" 
d="M285 -12q-100 0 -162.5 72.5t-62.5 181.5q0 108 62.5 180.5t162.5 72.5q101 0 163 -72t62 -181t-62 -181.5t-163 -72.5zM285 15q89 0 140.5 66.5t51.5 160.5q0 93 -51.5 159.5t-140.5 66.5q-88 0 -140 -66.5t-52 -159.5q0 -94 52 -160.5t140 -66.5zM404 556h-28l-91 120
l-88 -120h-28l98 144h36z" />
    <glyph glyph-name="otilde" unicode="&#xf5;" horiz-adv-x="570" 
d="M285 -12q-100 0 -162.5 72.5t-62.5 181.5q0 108 62.5 180.5t162.5 72.5q101 0 163 -72t62 -181t-62 -181.5t-163 -72.5zM285 15q89 0 140.5 66.5t51.5 160.5q0 93 -51.5 159.5t-140.5 66.5q-88 0 -140 -66.5t-52 -159.5q0 -94 52 -160.5t140 -66.5zM348 554
q-26 0 -44.5 17.5t-27 39t-23 39t-33.5 17.5q-26 0 -42.5 -26.5t-16.5 -80.5h-26q0 57 23.5 95.5t64.5 38.5q26 0 44.5 -17.5t27 -39t23 -39t33.5 -17.5q26 0 42.5 26.5t16.5 80.5h26q0 -57 -23.5 -95.5t-64.5 -38.5z" />
    <glyph glyph-name="odieresis" unicode="&#xf6;" horiz-adv-x="570" 
d="M285 -12q-100 0 -162.5 72.5t-62.5 181.5q0 108 62.5 180.5t162.5 72.5q101 0 163 -72t62 -181t-62 -181.5t-163 -72.5zM285 15q89 0 140.5 66.5t51.5 160.5q0 93 -51.5 159.5t-140.5 66.5q-88 0 -140 -66.5t-52 -159.5q0 -94 52 -160.5t140 -66.5zM414 598
q0 -11 -8.5 -19.5t-19.5 -8.5t-19.5 8.5t-8.5 19.5t8.5 19.5t19.5 8.5t19.5 -8.5t8.5 -19.5zM212 598q0 -11 -8.5 -19.5t-19.5 -8.5t-19.5 8.5t-8.5 19.5t8.5 19.5t19.5 8.5t19.5 -8.5t8.5 -19.5z" />
    <glyph glyph-name="divide" unicode="&#xf7;" horiz-adv-x="511" 
d="M289 536q0 -14 -10 -24t-23 -10t-23 10t-10 24q0 13 9.5 22.5t23.5 9.5t23.5 -9.5t9.5 -22.5zM482 322h-453v30h453v-30zM289 133q0 -13 -9.5 -23t-23.5 -10t-23.5 10t-9.5 23t9.5 23t23.5 10t23.5 -10t9.5 -23z" />
    <glyph glyph-name="oslash" unicode="&#xf8;" horiz-adv-x="570" 
d="M118 0h-34l42 56q-66 72 -66 186q0 108 62.5 180.5t162.5 72.5q76 0 133 -44l24 32h33l-37 -50q72 -72 72 -191q0 -109 -62 -181.5t-163 -72.5q-81 0 -139 49zM285 15q89 0 140.5 66.5t51.5 160.5q0 101 -57 166l-257 -347q49 -46 122 -46zM93 242q0 -96 52 -160l255 345
q-49 41 -115 41q-88 0 -140 -66.5t-52 -159.5z" />
    <glyph glyph-name="ugrave" unicode="&#xf9;" horiz-adv-x="528" 
d="M442 0h-30v74q-33 -37 -80 -61.5t-95 -24.5q-75 0 -113 36.5t-38 119.5v339h30v-339q0 -72 32 -100.5t93 -28.5q48 0 96.5 25.5t74.5 62.5v380h30v-483zM319 556h-30l-175 144h45z" />
    <glyph glyph-name="uacute" unicode="&#xfa;" horiz-adv-x="528" 
d="M442 0h-30v74q-33 -37 -80 -61.5t-95 -24.5q-75 0 -113 36.5t-38 119.5v339h30v-339q0 -72 32 -100.5t93 -28.5q48 0 96.5 25.5t74.5 62.5v380h30v-483zM418 700l-175 -144h-30l160 144h45z" />
    <glyph glyph-name="ucircumflex" unicode="&#xfb;" horiz-adv-x="528" 
d="M442 0h-30v74q-33 -37 -80 -61.5t-95 -24.5q-75 0 -113 36.5t-38 119.5v339h30v-339q0 -72 32 -100.5t93 -28.5q48 0 96.5 25.5t74.5 62.5v380h30v-483zM381 556h-28l-91 120l-88 -120h-28l98 144h36z" />
    <glyph glyph-name="udieresis" unicode="&#xfc;" horiz-adv-x="528" 
d="M442 0h-30v74q-33 -37 -80 -61.5t-95 -24.5q-75 0 -113 36.5t-38 119.5v339h30v-339q0 -72 32 -100.5t93 -28.5q48 0 96.5 25.5t74.5 62.5v380h30v-483zM397 598q0 -11 -8.5 -19.5t-19.5 -8.5t-19.5 8.5t-8.5 19.5t8.5 19.5t19.5 8.5t19.5 -8.5t8.5 -19.5zM195 598
q0 -11 -8.5 -19.5t-19.5 -8.5t-19.5 8.5t-8.5 19.5t8.5 19.5t19.5 8.5t19.5 -8.5t8.5 -19.5z" />
    <glyph glyph-name="yacute" unicode="&#xfd;" horiz-adv-x="471" 
d="M50 -189l6 28q18 -8 42 -8q25 0 42.5 14.5t33.5 51.5l44 100l-207 486h35l190 -448l189 448h35l-256 -597q-36 -82 -106 -82q-27 0 -48 7zM389 700l-175 -144h-30l160 144h45z" />
    <glyph glyph-name="thorn" unicode="&#xfe;" horiz-adv-x="562" 
d="M290 -12q-53 0 -98.5 25.5t-75.5 69.5v-267h-30v851h30v-265q26 40 73 66.5t101 26.5q98 0 157 -69t59 -184q0 -114 -59.5 -184t-156.5 -70zM290 15q86 0 134.5 64t48.5 163t-48.5 162.5t-134.5 63.5q-54 0 -102 -28t-72 -68v-259q24 -40 72 -69t102 -29z" />
    <glyph glyph-name="ydieresis" unicode="&#xff;" horiz-adv-x="471" 
d="M50 -189l6 28q18 -8 42 -8q25 0 42.5 14.5t33.5 51.5l44 100l-207 486h35l190 -448l189 448h35l-256 -597q-36 -82 -106 -82q-27 0 -48 7zM365 598q0 -11 -8.5 -19.5t-19.5 -8.5t-19.5 8.5t-8.5 19.5t8.5 19.5t19.5 8.5t19.5 -8.5t8.5 -19.5zM163 598q0 -11 -8.5 -19.5
t-19.5 -8.5t-19.5 8.5t-8.5 19.5t8.5 19.5t19.5 8.5t19.5 -8.5t8.5 -19.5z" />
    <glyph glyph-name="Amacron" unicode="&#x100;" horiz-adv-x="636" 
d="M615 0h-37l-74 179h-372l-74 -179h-37l278 667h38zM492 209l-174 421l-174 -421h348zM499 750h-363v27h363v-27z" />
    <glyph glyph-name="amacron" unicode="&#x101;" horiz-adv-x="514" 
d="M428 0h-30v59q-65 -71 -167 -71q-68 0 -118.5 43.5t-50.5 117.5t50 117.5t119 43.5q102 0 167 -71v109q0 56 -39 88t-97 32q-92 0 -155 -76l-23 20q37 43 78 63t100 20q74 0 120 -37.5t46 -108.5v-349zM239 15q103 0 159 74v120q-56 74 -159 74q-65 0 -104.5 -38.5
t-39.5 -95.5t39.5 -95.5t104.5 -38.5zM438 581h-363v27h363v-27z" />
    <glyph glyph-name="Abreve" unicode="&#x102;" horiz-adv-x="636" 
d="M615 0h-37l-74 179h-372l-74 -179h-37l278 667h38zM492 209l-174 421l-174 -421h348zM493 816q-65 -88 -175 -88q-109 0 -176 88l21 19q57 -80 155 -80t155 80z" />
    <glyph glyph-name="abreve" unicode="&#x103;" horiz-adv-x="514" 
d="M428 0h-30v59q-65 -71 -167 -71q-68 0 -118.5 43.5t-50.5 117.5t50 117.5t119 43.5q102 0 167 -71v109q0 56 -39 88t-97 32q-92 0 -155 -76l-23 20q37 43 78 63t100 20q74 0 120 -37.5t46 -108.5v-349zM239 15q103 0 159 74v120q-56 74 -159 74q-65 0 -104.5 -38.5
t-39.5 -95.5t39.5 -95.5t104.5 -38.5zM432 657q-65 -88 -175 -88q-109 0 -176 88l21 19q57 -80 155 -80t155 80z" />
    <glyph glyph-name="Aogonek" unicode="&#x104;" horiz-adv-x="636" 
d="M643 -112l25 -11q-22 -63 -83 -63q-35 0 -58 21t-23 63q0 32 19.5 61t51.5 48l-71 172h-372l-74 -179h-37l278 667h38l278 -667q-82 -39 -82 -102q0 -57 52 -57q43 0 58 47zM492 209l-174 421l-174 -421h348z" />
    <glyph glyph-name="aogonek" unicode="&#x105;" horiz-adv-x="514" 
d="M456 -112l25 -11q-22 -63 -83 -63q-35 0 -58 21t-23 63q0 34 22.5 65t58.5 50v46q-65 -71 -167 -71q-68 0 -118.5 43.5t-50.5 117.5t50 117.5t119 43.5q102 0 167 -71v109q0 56 -39 88t-97 32q-92 0 -155 -76l-23 20q37 43 78 63t100 20q74 0 120 -37.5t46 -108.5v-349
q-82 -39 -82 -102q0 -57 52 -57q43 0 58 47zM239 15q103 0 159 74v120q-56 74 -159 74q-65 0 -104.5 -38.5t-39.5 -95.5t39.5 -95.5t104.5 -38.5z" />
    <glyph glyph-name="Cacute" unicode="&#x106;" horiz-adv-x="667" 
d="M398 -12q-141 0 -237 97t-96 248t96 248t237 97t232 -105l-25 -22q-36 45 -90.5 71t-116.5 26q-127 0 -212.5 -88t-85.5 -227q0 -138 85.5 -226.5t212.5 -88.5q62 0 116.5 26t90.5 71l26 -21q-94 -106 -233 -106zM551 872l-175 -144h-30l160 144h45z" />
    <glyph glyph-name="cacute" unicode="&#x107;" horiz-adv-x="493" 
d="M288 -12q-102 0 -165 73.5t-63 180.5t63 180t165 73q56 0 94 -20t71 -61l-22 -18q-53 72 -141 72q-91 0 -144 -64.5t-53 -161.5q0 -98 53.5 -162.5t143.5 -64.5q87 0 141 73l22 -19q-33 -41 -71 -61t-94 -20zM443 700l-175 -144h-30l160 144h45z" />
    <glyph glyph-name="Ccircumflex" unicode="&#x108;" horiz-adv-x="667" 
d="M398 -12q-141 0 -237 97t-96 248t96 248t237 97t232 -105l-25 -22q-36 45 -90.5 71t-116.5 26q-127 0 -212.5 -88t-85.5 -227q0 -138 85.5 -226.5t212.5 -88.5q62 0 116.5 26t90.5 71l26 -21q-94 -106 -233 -106zM516 728h-28l-91 120l-88 -120h-28l98 144h36z" />
    <glyph glyph-name="ccircumflex" unicode="&#x109;" horiz-adv-x="493" 
d="M288 -12q-102 0 -165 73.5t-63 180.5t63 180t165 73q56 0 94 -20t71 -61l-22 -18q-53 72 -141 72q-91 0 -144 -64.5t-53 -161.5q0 -98 53.5 -162.5t143.5 -64.5q87 0 141 73l22 -19q-33 -41 -71 -61t-94 -20zM407 556h-28l-91 120l-88 -120h-28l98 144h36z" />
    <glyph glyph-name="Cdotaccent" unicode="&#x10a;" horiz-adv-x="667" 
d="M398 -12q-141 0 -237 97t-96 248t96 248t237 97t232 -105l-25 -22q-36 45 -90.5 71t-116.5 26q-127 0 -212.5 -88t-85.5 -227q0 -138 85.5 -226.5t212.5 -88.5q62 0 116.5 26t90.5 71l26 -21q-94 -106 -233 -106zM400 736q-11 0 -20 8.5t-9 20.5t9 20.5t20 8.5
q12 0 20.5 -8.5t8.5 -20.5t-8.5 -20.5t-20.5 -8.5z" />
    <glyph glyph-name="cdotaccent" unicode="&#x10b;" horiz-adv-x="493" 
d="M288 -12q-102 0 -165 73.5t-63 180.5t63 180t165 73q56 0 94 -20t71 -61l-22 -18q-53 72 -141 72q-91 0 -144 -64.5t-53 -161.5q0 -98 53.5 -162.5t143.5 -64.5q87 0 141 73l22 -19q-33 -41 -71 -61t-94 -20zM291 591q-11 0 -20 8.5t-9 20.5t9 20.5t20 8.5
q12 0 20.5 -8.5t8.5 -20.5t-8.5 -20.5t-20.5 -8.5z" />
    <glyph glyph-name="Ccaron" unicode="&#x10c;" horiz-adv-x="667" 
d="M398 -12q-141 0 -237 97t-96 248t96 248t237 97t232 -105l-25 -22q-36 45 -90.5 71t-116.5 26q-127 0 -212.5 -88t-85.5 -227q0 -138 85.5 -226.5t212.5 -88.5q62 0 116.5 26t90.5 71l26 -21q-94 -106 -233 -106zM418 728h-36l-101 144h28l91 -120l88 120h28z" />
    <glyph glyph-name="ccaron" unicode="&#x10d;" horiz-adv-x="493" 
d="M288 -12q-102 0 -165 73.5t-63 180.5t63 180t165 73q56 0 94 -20t71 -61l-22 -18q-53 72 -141 72q-91 0 -144 -64.5t-53 -161.5q0 -98 53.5 -162.5t143.5 -64.5q87 0 141 73l22 -19q-33 -41 -71 -61t-94 -20zM309 556h-36l-101 144h28l91 -120l88 120h28z" />
    <glyph glyph-name="Dcaron" unicode="&#x10e;" horiz-adv-x="684" 
d="M286 0h-198v667h198q150 0 241 -97.5t91 -236.5q0 -140 -90.5 -236.5t-241.5 -96.5zM286 30q138 0 217.5 86t79.5 217q0 130 -80 217t-217 87h-166v-607h166zM361 728h-36l-101 144h28l91 -120l88 120h28z" />
    <glyph glyph-name="dcaron" unicode="&#x10f;" horiz-adv-x="605" 
d="M480 0h-30v81q-26 -40 -73 -66.5t-101 -26.5q-98 0 -157 69t-59 184q0 114 59.5 184t156.5 70q53 0 98.5 -25.5t75.5 -69.5v267h30v-667zM276 15q54 0 102 28t72 68v259q-24 40 -72 69t-102 29q-86 0 -134.5 -64t-48.5 -163t48.5 -162.5t134.5 -63.5zM608 627
q0 -36 -18 -69.5t-44 -51.5l-22 18q24 18 38.5 43.5t14.5 48.5q-6 -1 -8 -1q-14 0 -23 9.5t-9 23.5q0 13 9 22.5t23 9.5q16 0 27.5 -14t11.5 -39z" />
    <glyph glyph-name="Dcroat" unicode="&#x110;" horiz-adv-x="715" 
d="M317 0h-198v319h-107v30h107v318h198q150 0 241 -97.5t91 -236.5q0 -140 -90.5 -236.5t-241.5 -96.5zM339 319h-188v-289h166q138 0 217.5 86t79.5 217q0 130 -80 217t-217 87h-166v-288h188v-30z" />
    <glyph glyph-name="dcroat" unicode="&#x111;" horiz-adv-x="569" 
d="M480 0h-30v81q-26 -40 -73 -66.5t-101 -26.5q-98 0 -157 69t-59 184q0 114 59.5 184t156.5 70q53 0 98.5 -25.5t75.5 -69.5v141h-166v27h166v99h30v-99h77v-27h-77v-541zM276 15q54 0 102 28t72 68v259q-24 40 -72 69t-102 29q-86 0 -134.5 -64t-48.5 -163t48.5 -162.5
t134.5 -63.5z" />
    <glyph glyph-name="Emacron" unicode="&#x112;" horiz-adv-x="558" 
d="M496 0h-408v667h408v-30h-376v-279h369v-30h-369v-298h376v-30zM471 750h-363v27h363v-27z" />
    <glyph glyph-name="emacron" unicode="&#x113;" horiz-adv-x="571" 
d="M297 -12q-105 0 -171 71.5t-66 182.5q0 106 65 179.5t162 73.5q106 0 165 -73t59 -180v-10h-417q2 -92 57.5 -154.5t145.5 -62.5q100 0 168 73l18 -19q-78 -81 -186 -81zM479 259q0 49 -20 95.5t-65.5 80t-107.5 33.5q-87 0 -138 -64.5t-54 -144.5h385zM467 581h-363v27
h363v-27z" />
    <glyph glyph-name="Ebreve" unicode="&#x114;" horiz-adv-x="558" 
d="M496 0h-408v667h408v-30h-376v-279h369v-30h-369v-298h376v-30zM465 816q-65 -88 -175 -88q-109 0 -176 88l21 19q57 -80 155 -80t155 80z" />
    <glyph glyph-name="ebreve" unicode="&#x115;" horiz-adv-x="571" 
d="M297 -12q-105 0 -171 71.5t-66 182.5q0 106 65 179.5t162 73.5q106 0 165 -73t59 -180v-10h-417q2 -92 57.5 -154.5t145.5 -62.5q100 0 168 73l18 -19q-78 -81 -186 -81zM479 259q0 49 -20 95.5t-65.5 80t-107.5 33.5q-87 0 -138 -64.5t-54 -144.5h385zM465 657
q-65 -88 -175 -88q-109 0 -176 88l21 19q57 -80 155 -80t155 80z" />
    <glyph glyph-name="Edotaccent" unicode="&#x116;" horiz-adv-x="558" 
d="M496 0h-408v667h408v-30h-376v-279h369v-30h-369v-298h376v-30zM299 736q-11 0 -20 8.5t-9 20.5t9 20.5t20 8.5q12 0 20.5 -8.5t8.5 -20.5t-8.5 -20.5t-20.5 -8.5z" />
    <glyph glyph-name="edotaccent" unicode="&#x117;" horiz-adv-x="571" 
d="M297 -12q-105 0 -171 71.5t-66 182.5q0 106 65 179.5t162 73.5q106 0 165 -73t59 -180v-10h-417q2 -92 57.5 -154.5t145.5 -62.5q100 0 168 73l18 -19q-78 -81 -186 -81zM479 259q0 49 -20 95.5t-65.5 80t-107.5 33.5q-87 0 -138 -64.5t-54 -144.5h385zM288 591
q-11 0 -20 8.5t-9 20.5t9 20.5t20 8.5q12 0 20.5 -8.5t8.5 -20.5t-8.5 -20.5t-20.5 -8.5z" />
    <glyph glyph-name="Eogonek" unicode="&#x118;" horiz-adv-x="558" 
d="M524 -112l25 -11q-22 -63 -83 -63q-35 0 -58 21t-23 63q0 59 60 102h-357v667h408v-30h-376v-279h369v-30h-369v-298h376v-30q-82 -39 -82 -102q0 -57 52 -57q43 0 58 47z" />
    <glyph glyph-name="eogonek" unicode="&#x119;" horiz-adv-x="571" 
d="M406 -112l25 -11q-22 -63 -83 -63q-35 0 -58 21t-23 63q0 49 45 91q-2 -1 -15 -1q-105 0 -171 71.5t-66 182.5q0 106 65 179.5t162 73.5q106 0 165 -73t59 -180v-10h-417q2 -92 57.5 -154.5t145.5 -62.5q100 0 168 73l18 -19q-49 -51 -105 -69q-82 -39 -82 -102
q0 -57 52 -57q43 0 58 47zM479 259q0 49 -20 95.5t-65.5 80t-107.5 33.5q-87 0 -138 -64.5t-54 -144.5h385z" />
    <glyph glyph-name="Ecaron" unicode="&#x11a;" horiz-adv-x="558" 
d="M496 0h-408v667h408v-30h-376v-279h369v-30h-369v-298h376v-30zM313 728h-36l-101 144h28l91 -120l88 120h28z" />
    <glyph glyph-name="ecaron" unicode="&#x11b;" horiz-adv-x="571" 
d="M297 -12q-105 0 -171 71.5t-66 182.5q0 106 65 179.5t162 73.5q106 0 165 -73t59 -180v-10h-417q2 -92 57.5 -154.5t145.5 -62.5q100 0 168 73l18 -19q-78 -81 -186 -81zM479 259q0 49 -20 95.5t-65.5 80t-107.5 33.5q-87 0 -138 -64.5t-54 -144.5h385zM308 556h-36
l-101 144h28l91 -120l88 120h28z" />
    <glyph glyph-name="Gcircumflex" unicode="&#x11c;" horiz-adv-x="708" 
d="M398 -13q-141 0 -237 97t-96 249q0 151 96 248t237 97q144 0 244 -103l-21 -22q-39 45 -98 70t-125 25q-127 0 -212.5 -88t-85.5 -227q0 -138 85.5 -227t212.5 -89q67 0 122 26.5t90 63.5v183h-275v30h307v-226q-44 -49 -107.5 -78t-136.5 -29zM521 728h-28l-91 120
l-88 -120h-28l98 144h36z" />
    <glyph glyph-name="gcircumflex" unicode="&#x11d;" horiz-adv-x="566" 
d="M276 -196q-63 0 -103.5 15t-81.5 58l22 25q31 -39 68.5 -55t94.5 -16q77 0 125.5 41.5t48.5 124.5v84q-27 -40 -73.5 -67.5t-100.5 -27.5q-98 0 -157 69.5t-59 184.5q0 114 59.5 184.5t156.5 70.5q53 0 98.5 -25.5t75.5 -69.5v83h30v-486q0 -99 -55.5 -146t-148.5 -47z
M276 13q54 0 102 29t72 69v259q-24 40 -72 69t-102 29q-86 0 -134.5 -64.5t-48.5 -163.5t48.5 -163t134.5 -64zM402 551h-28l-91 120l-88 -120h-28l98 144h36z" />
    <glyph glyph-name="Gbreve" unicode="&#x11e;" horiz-adv-x="708" 
d="M398 -13q-141 0 -237 97t-96 249q0 151 96 248t237 97q144 0 244 -103l-21 -22q-39 45 -98 70t-125 25q-127 0 -212.5 -88t-85.5 -227q0 -138 85.5 -227t212.5 -89q67 0 122 26.5t90 63.5v183h-275v30h307v-226q-44 -49 -107.5 -78t-136.5 -29zM577 816q-65 -88 -175 -88
q-109 0 -176 88l21 19q57 -80 155 -80t155 80z" />
    <glyph glyph-name="gbreve" unicode="&#x11f;" horiz-adv-x="566" 
d="M276 -196q-63 0 -103.5 15t-81.5 58l22 25q31 -39 68.5 -55t94.5 -16q77 0 125.5 41.5t48.5 124.5v84q-27 -40 -73.5 -67.5t-100.5 -27.5q-98 0 -157 69.5t-59 184.5q0 114 59.5 184.5t156.5 70.5q53 0 98.5 -25.5t75.5 -69.5v83h30v-486q0 -99 -55.5 -146t-148.5 -47z
M276 13q54 0 102 29t72 69v259q-24 40 -72 69t-102 29q-86 0 -134.5 -64.5t-48.5 -163.5t48.5 -163t134.5 -64zM458 657q-65 -88 -175 -88q-109 0 -176 88l21 19q57 -80 155 -80t155 80z" />
    <glyph glyph-name="Gdotaccent" unicode="&#x120;" horiz-adv-x="708" 
d="M398 -13q-141 0 -237 97t-96 249q0 151 96 248t237 97q144 0 244 -103l-21 -22q-39 45 -98 70t-125 25q-127 0 -212.5 -88t-85.5 -227q0 -138 85.5 -227t212.5 -89q67 0 122 26.5t90 63.5v183h-275v30h307v-226q-44 -49 -107.5 -78t-136.5 -29zM401 736q-11 0 -20 8.5
t-9 20.5t9 20.5t20 8.5q12 0 20.5 -8.5t8.5 -20.5t-8.5 -20.5t-20.5 -8.5z" />
    <glyph glyph-name="gdotaccent" unicode="&#x121;" horiz-adv-x="566" 
d="M276 -196q-63 0 -103.5 15t-81.5 58l22 25q31 -39 68.5 -55t94.5 -16q77 0 125.5 41.5t48.5 124.5v84q-27 -40 -73.5 -67.5t-100.5 -27.5q-98 0 -157 69.5t-59 184.5q0 114 59.5 184.5t156.5 70.5q53 0 98.5 -25.5t75.5 -69.5v83h30v-486q0 -99 -55.5 -146t-148.5 -47z
M276 13q54 0 102 29t72 69v259q-24 40 -72 69t-102 29q-86 0 -134.5 -64.5t-48.5 -163.5t48.5 -163t134.5 -64zM281 591q-11 0 -20 8.5t-9 20.5t9 20.5t20 8.5q12 0 20.5 -8.5t8.5 -20.5t-8.5 -20.5t-20.5 -8.5z" />
    <glyph glyph-name="Gcommaaccent" unicode="&#x122;" horiz-adv-x="708" 
d="M398 -13q-141 0 -237 97t-96 249q0 151 96 248t237 97q144 0 244 -103l-21 -22q-39 45 -98 70t-125 25q-127 0 -212.5 -88t-85.5 -227q0 -138 85.5 -227t212.5 -89q67 0 122 26.5t90 63.5v183h-275v30h307v-226q-44 -49 -107.5 -78t-136.5 -29zM439 -137q0 -36 -18 -69.5
t-44 -51.5l-22 18q24 18 38.5 43.5t14.5 48.5q-6 -1 -8 -1q-14 0 -23 9.5t-9 23.5q0 13 9 22.5t23 9.5q16 0 27.5 -14t11.5 -39z" />
    <glyph glyph-name="gcommaaccent" unicode="&#x123;" horiz-adv-x="566" 
d="M241 610q0 40 18.5 76.5t41.5 52.5l24 -19q-24 -18 -38.5 -43.5t-14.5 -48.5q2 1 4 1q12 0 22.5 -10t10.5 -23q0 -12 -9.5 -22t-23.5 -10q-16 0 -25.5 13t-9.5 33zM276 -196q-63 0 -103.5 15t-81.5 58l22 25q31 -39 68.5 -55t94.5 -16q77 0 125.5 41.5t48.5 124.5v84
q-27 -40 -73.5 -67.5t-100.5 -27.5q-98 0 -157 69.5t-59 184.5q0 114 59.5 184.5t156.5 70.5q53 0 98.5 -25.5t75.5 -69.5v83h30v-486q0 -99 -55.5 -146t-148.5 -47zM276 13q54 0 102 29t72 69v259q-24 40 -72 69t-102 29q-86 0 -134.5 -64.5t-48.5 -163.5t48.5 -163
t134.5 -64z" />
    <glyph glyph-name="Hcircumflex" unicode="&#x124;" horiz-adv-x="695" 
d="M607 0h-32v328h-455v-328h-32v667h32v-309h455v309h32v-667zM462 728h-28l-91 120l-88 -120h-28l98 144h36z" />
    <glyph glyph-name="hcircumflex" unicode="&#x125;" horiz-adv-x="528" 
d="M442 0h-30v339q0 72 -32 100.5t-93 28.5q-48 0 -96 -26.5t-75 -64.5v-377h-30v667h30v-260q29 35 78 61.5t97 26.5q75 0 113 -36.5t38 -119.5v-339zM220 728h-28l-91 120l-88 -120h-28l98 144h36z" />
    <glyph glyph-name="Hbar" unicode="&#x126;" horiz-adv-x="717" 
d="M619 0h-32v328h-455v-328h-32v501h-88v27h88v139h32v-139h455v139h32v-139h86v-27h-86v-501zM132 358h455v143h-455v-143z" />
    <glyph glyph-name="hbar" unicode="&#x127;" horiz-adv-x="530" 
d="M284 541h-166v-134q29 35 78 61.5t97 26.5q75 0 113 -36.5t38 -119.5v-339h-30v339q0 72 -32 100.5t-93 28.5q-48 0 -96 -26.5t-75 -64.5v-377h-30v541h-76v27h76v99h30v-99h166v-27z" />
    <glyph glyph-name="Itilde" unicode="&#x128;" horiz-adv-x="208" 
d="M120 0h-32v667h32v-667zM166 726q-26 0 -44.5 17.5t-27 39t-23 39t-33.5 17.5q-26 0 -42.5 -26.5t-16.5 -80.5h-26q0 57 23.5 95.5t64.5 38.5q26 0 44.5 -17.5t27 -39t23 -39t33.5 -17.5q26 0 42.5 26.5t16.5 80.5h26q0 -57 -23.5 -95.5t-64.5 -38.5z" />
    <glyph glyph-name="itilde" unicode="&#x129;" horiz-adv-x="202" 
d="M116 0h-30v483h30v-483zM163 544q-26 0 -44.5 17.5t-27 39t-23 39t-33.5 17.5q-26 0 -42.5 -26.5t-16.5 -80.5h-26q0 57 23.5 95.5t64.5 38.5q26 0 44.5 -17.5t27 -39t23 -39t33.5 -17.5q26 0 42.5 26.5t16.5 80.5h26q0 -57 -23.5 -95.5t-64.5 -38.5z" />
    <glyph glyph-name="Imacron" unicode="&#x12a;" horiz-adv-x="208" 
d="M120 0h-32v667h32v-667zM286 750h-363v27h363v-27z" />
    <glyph glyph-name="imacron" unicode="&#x12b;" horiz-adv-x="202" 
d="M116 0h-30v483h30v-483zM283 581h-363v27h363v-27z" />
    <glyph glyph-name="Ibreve" unicode="&#x12c;" horiz-adv-x="208" 
d="M120 0h-32v667h32v-667zM280 816q-65 -88 -175 -88q-109 0 -176 88l21 19q57 -80 155 -80t155 80z" />
    <glyph glyph-name="ibreve" unicode="&#x12d;" horiz-adv-x="202" 
d="M116 0h-30v483h30v-483zM277 657q-65 -88 -175 -88q-109 0 -176 88l21 19q57 -80 155 -80t155 80z" />
    <glyph glyph-name="Iogonek" unicode="&#x12e;" horiz-adv-x="208" 
d="M148 -112l25 -11q-22 -63 -83 -63q-35 0 -58 21t-23 63q0 33 22 63.5t57 50.5v655h32v-667q-82 -39 -82 -102q0 -57 52 -57q43 0 58 47z" />
    <glyph glyph-name="iogonek" unicode="&#x12f;" horiz-adv-x="202" 
d="M144 -112l25 -11q-22 -63 -83 -63q-35 0 -58 21t-23 63q0 34 22.5 65t58.5 50v470h30v-483q-82 -39 -82 -102q0 -57 52 -57q43 0 58 47zM101 566q-11 0 -20 8.5t-9 20.5t9 20.5t20 8.5q12 0 20.5 -8.5t8.5 -20.5t-8.5 -20.5t-20.5 -8.5z" />
    <glyph glyph-name="Idotaccent" unicode="&#x130;" horiz-adv-x="208" 
d="M120 0h-32v667h32v-667zM104 736q-11 0 -20 8.5t-9 20.5t9 20.5t20 8.5q12 0 20.5 -8.5t8.5 -20.5t-8.5 -20.5t-20.5 -8.5z" />
    <glyph glyph-name="dotlessi" unicode="&#x131;" horiz-adv-x="202" 
d="M116 0h-30v483h30v-483z" />
    <glyph glyph-name="IJ" unicode="&#x132;" horiz-adv-x="673" 
d="M120 0h-32v667h32v-667zM393 -12q-107 0 -169 87l27 24q57 -81 142 -81q73 0 116.5 46.5t43.5 120.5v482h32v-482q0 -95 -55 -146t-137 -51z" />
    <glyph glyph-name="ij" unicode="&#x133;" horiz-adv-x="404" 
d="M101 566q-11 0 -20 8.5t-9 20.5t9 20.5t20 8.5q12 0 20.5 -8.5t8.5 -20.5t-8.5 -20.5t-20.5 -8.5zM116 0h-30v483h30v-483zM303 566q-11 0 -20 8.5t-9 20.5t9 20.5t20 8.5q12 0 20.5 -8.5t8.5 -20.5t-8.5 -20.5t-20.5 -8.5zM199 -196q-51 0 -92 38l19 25q32 -36 73 -36
q40 0 64.5 23t24.5 70v559h30v-559q0 -120 -119 -120z" />
    <glyph glyph-name="Jcircumflex" unicode="&#x134;" horiz-adv-x="465" 
d="M185 -12q-107 0 -169 87l27 24q57 -81 142 -81q73 0 116.5 46.5t43.5 120.5v482h32v-482q0 -95 -55 -146t-137 -51zM478 728h-28l-91 120l-88 -120h-28l98 144h36z" />
    <glyph glyph-name="jcircumflex" unicode="&#x135;" horiz-adv-x="202" 
d="M-3 -196q-51 0 -92 38l19 25q32 -36 73 -36q40 0 64.5 23t24.5 70v559h30v-559q0 -120 -119 -120zM220 556h-28l-91 120l-88 -120h-28l98 144h36z" />
    <glyph glyph-name="Kcommaaccent" unicode="&#x136;" horiz-adv-x="571" 
d="M540 0h-43l-297 328l-80 -87v-241h-32v667h32v-385l347 385h43l-290 -319zM330 -137q0 -36 -18 -69.5t-44 -51.5l-22 18q24 18 38.5 43.5t14.5 48.5q-6 -1 -8 -1q-14 0 -23 9.5t-9 23.5q0 13 9 22.5t23 9.5q16 0 27.5 -14t11.5 -39z" />
    <glyph glyph-name="kcommaaccent" unicode="&#x137;" horiz-adv-x="496" 
d="M471 0h-43l-212 243l-100 -92v-151h-30v667h30v-478l315 294h43l-235 -218zM293 -137q0 -36 -18 -69.5t-44 -51.5l-22 18q24 18 38.5 43.5t14.5 48.5q-6 -1 -8 -1q-14 0 -23 9.5t-9 23.5q0 13 9 22.5t23 9.5q16 0 27.5 -14t11.5 -39z" />
    <glyph glyph-name="kgreenlandic" unicode="&#x138;" horiz-adv-x="496" 
d="M471 0h-43l-212 243l-100 -92v-151h-30v483h30v-294l315 294h43l-235 -218z" />
    <glyph glyph-name="Lacute" unicode="&#x139;" horiz-adv-x="475" 
d="M439 0h-367v667h32v-637h335v-30zM409 872l-175 -144h-30l160 144h45z" />
    <glyph glyph-name="lacute" unicode="&#x13a;" horiz-adv-x="202" 
d="M116 0h-30v667h30v-667zM254 872l-175 -144h-30l160 144h45z" />
    <glyph glyph-name="Lcommaaccent" unicode="&#x13b;" horiz-adv-x="475" 
d="M439 0h-367v667h32v-637h335v-30zM282 -137q0 -36 -18 -69.5t-44 -51.5l-22 18q24 18 38.5 43.5t14.5 48.5q-6 -1 -8 -1q-14 0 -23 9.5t-9 23.5q0 13 9 22.5t23 9.5q16 0 27.5 -14t11.5 -39z" />
    <glyph glyph-name="lcommaaccent" unicode="&#x13c;" horiz-adv-x="202" 
d="M116 0h-30v667h30v-667zM146 -137q0 -36 -18 -69.5t-44 -51.5l-22 18q24 18 38.5 43.5t14.5 48.5q-6 -1 -8 -1q-14 0 -23 9.5t-9 23.5q0 13 9 22.5t23 9.5q16 0 27.5 -14t11.5 -39z" />
    <glyph glyph-name="Lcaron" unicode="&#x13d;" horiz-adv-x="475" 
d="M439 0h-367v667h32v-637h335v-30zM282 626q0 -36 -18 -69.5t-44 -51.5l-22 18q24 18 38.5 43.5t14.5 48.5q-6 -1 -8 -1q-14 0 -23 9.5t-9 23.5q0 13 9 22.5t23 9.5q16 0 27.5 -14t11.5 -39z" />
    <glyph glyph-name="lcaron" unicode="&#x13e;" horiz-adv-x="237" 
d="M116 0h-30v667h30v-667zM259 626q0 -36 -18 -69.5t-44 -51.5l-22 18q24 18 38.5 43.5t14.5 48.5q-6 -1 -8 -1q-14 0 -23 9.5t-9 23.5q0 13 9 22.5t23 9.5q16 0 27.5 -14t11.5 -39z" />
    <glyph glyph-name="Ldot" unicode="&#x13f;" horiz-adv-x="475" 
d="M439 0h-367v667h32v-637h335v-30zM362 342q0 -14 -10 -23.5t-23 -9.5t-23 9.5t-10 23.5q0 13 10 22.5t23 9.5t23 -9.5t10 -22.5z" />
    <glyph glyph-name="ldot" unicode="&#x140;" horiz-adv-x="240" 
d="M116 0h-30v667h30v-667zM254 245q0 -13 -10 -23t-23 -10t-23 10t-10 23t10 22.5t23 9.5t23 -9.5t10 -22.5z" />
    <glyph glyph-name="Lslash" unicode="&#x141;" horiz-adv-x="515" 
d="M12 246v34l100 58v329h32v-311l114 67v-34l-114 -67v-292h335v-30h-367v304z" />
    <glyph glyph-name="lslash" unicode="&#x142;" horiz-adv-x="268" 
d="M12 248v32l107 61v326h30v-309l107 62v-32l-107 -62v-326h-30v309z" />
    <glyph glyph-name="Nacute" unicode="&#x143;" horiz-adv-x="690" 
d="M602 0h-32l-450 615v-615h-32v667h32l450 -609v609h32v-667zM497 872l-175 -144h-30l160 144h45z" />
    <glyph glyph-name="nacute" unicode="&#x144;" horiz-adv-x="528" 
d="M442 0h-30v337q0 72 -32 101.5t-93 29.5q-48 0 -96 -26.5t-75 -64.5v-377h-30v483h30v-76q29 35 78 61.5t97 26.5q75 0 113 -37.5t38 -120.5v-337zM416 700l-175 -144h-30l160 144h45z" />
    <glyph glyph-name="Ncommaaccent" unicode="&#x145;" horiz-adv-x="690" 
d="M602 0h-32l-450 615v-615h-32v667h32l450 -609v609h32v-667zM390 -137q0 -36 -18 -69.5t-44 -51.5l-22 18q24 18 38.5 43.5t14.5 48.5q-6 -1 -8 -1q-14 0 -23 9.5t-9 23.5q0 13 9 22.5t23 9.5q16 0 27.5 -14t11.5 -39z" />
    <glyph glyph-name="ncommaaccent" unicode="&#x146;" horiz-adv-x="528" 
d="M442 0h-30v337q0 72 -32 101.5t-93 29.5q-48 0 -96 -26.5t-75 -64.5v-377h-30v483h30v-76q29 35 78 61.5t97 26.5q75 0 113 -37.5t38 -120.5v-337zM309 -137q0 -36 -18 -69.5t-44 -51.5l-22 18q24 18 38.5 43.5t14.5 48.5q-6 -1 -8 -1q-14 0 -23 9.5t-9 23.5q0 13 9 22.5
t23 9.5q16 0 27.5 -14t11.5 -39z" />
    <glyph glyph-name="Ncaron" unicode="&#x147;" horiz-adv-x="690" 
d="M602 0h-32l-450 615v-615h-32v667h32l450 -609v609h32v-667zM364 728h-36l-101 144h28l91 -120l88 120h28z" />
    <glyph glyph-name="ncaron" unicode="&#x148;" horiz-adv-x="528" 
d="M442 0h-30v337q0 72 -32 101.5t-93 29.5q-48 0 -96 -26.5t-75 -64.5v-377h-30v483h30v-76q29 35 78 61.5t97 26.5q75 0 113 -37.5t38 -120.5v-337zM283 556h-36l-101 144h28l91 -120l88 120h28z" />
    <glyph glyph-name="napostrophe" unicode="&#x149;" horiz-adv-x="528" 
d="M442 0h-30v337q0 72 -32 101.5t-93 29.5q-48 0 -96 -26.5t-75 -64.5v-377h-30v483h30v-76q29 35 78 61.5t97 26.5q75 0 113 -37.5t38 -120.5v-337zM149 672q0 -36 -18 -69.5t-44 -51.5l-22 18q24 18 38.5 43.5t14.5 48.5q-6 -1 -8 -1q-14 0 -23 9.5t-9 23.5q0 13 9 22.5
t23 9.5q16 0 27.5 -14t11.5 -39z" />
    <glyph glyph-name="Eng" unicode="&#x14a;" horiz-adv-x="690" 
d="M410 -196q-107 0 -169 87l27 24q57 -81 142 -81q74 0 117 45t43 119v2l-450 615v-615h-32v667h32l450 -609v609h32v-669q0 -95 -54.5 -144.5t-137.5 -49.5z" />
    <glyph glyph-name="eng" unicode="&#x14b;" horiz-adv-x="528" 
d="M323 -196q-51 0 -92 38l19 25q32 -36 73 -36q40 0 64.5 23t24.5 70v413q0 72 -32 101.5t-93 29.5q-48 0 -96 -26.5t-75 -64.5v-377h-30v483h30v-76q29 35 78 61.5t97 26.5q75 0 113 -37.5t38 -120.5v-413q0 -120 -119 -120z" />
    <glyph glyph-name="Omacron" unicode="&#x14c;" horiz-adv-x="764" 
d="M382 -12q-143 0 -230 98.5t-87 246.5t87 246.5t230 98.5q142 0 229.5 -98.5t87.5 -246.5t-87.5 -246.5t-229.5 -98.5zM382 18q127 0 204.5 88.5t77.5 226.5q0 139 -77.5 227t-204.5 88q-128 0 -205 -88t-77 -227q0 -138 77 -226.5t205 -88.5zM563 750h-363v27h363v-27z
" />
    <glyph glyph-name="omacron" unicode="&#x14d;" horiz-adv-x="570" 
d="M285 -12q-100 0 -162.5 72.5t-62.5 181.5q0 108 62.5 180.5t162.5 72.5q101 0 163 -72t62 -181t-62 -181.5t-163 -72.5zM285 15q89 0 140.5 66.5t51.5 160.5q0 93 -51.5 159.5t-140.5 66.5q-88 0 -140 -66.5t-52 -159.5q0 -94 52 -160.5t140 -66.5zM466 581h-363v27h363
v-27z" />
    <glyph glyph-name="Obreve" unicode="&#x14e;" horiz-adv-x="764" 
d="M382 -12q-143 0 -230 98.5t-87 246.5t87 246.5t230 98.5q142 0 229.5 -98.5t87.5 -246.5t-87.5 -246.5t-229.5 -98.5zM382 18q127 0 204.5 88.5t77.5 226.5q0 139 -77.5 227t-204.5 88q-128 0 -205 -88t-77 -227q0 -138 77 -226.5t205 -88.5zM556 816q-65 -88 -175 -88
q-109 0 -176 88l21 19q57 -80 155 -80t155 80z" />
    <glyph glyph-name="obreve" unicode="&#x14f;" horiz-adv-x="570" 
d="M285 -12q-100 0 -162.5 72.5t-62.5 181.5q0 108 62.5 180.5t162.5 72.5q101 0 163 -72t62 -181t-62 -181.5t-163 -72.5zM285 15q89 0 140.5 66.5t51.5 160.5q0 93 -51.5 159.5t-140.5 66.5q-88 0 -140 -66.5t-52 -159.5q0 -94 52 -160.5t140 -66.5zM462 657
q-65 -88 -175 -88q-109 0 -176 88l21 19q57 -80 155 -80t155 80z" />
    <glyph glyph-name="Ohungarumlaut" unicode="&#x150;" horiz-adv-x="764" 
d="M382 -12q-143 0 -230 98.5t-87 246.5t87 246.5t230 98.5q142 0 229.5 -98.5t87.5 -246.5t-87.5 -246.5t-229.5 -98.5zM382 18q127 0 204.5 88.5t77.5 226.5q0 139 -77.5 227t-204.5 88q-128 0 -205 -88t-77 -227q0 -138 77 -226.5t205 -88.5zM424 872l-115 -144h-26
l100 144h41zM560 872l-115 -144h-26l100 144h41z" />
    <glyph glyph-name="ohungarumlaut" unicode="&#x151;" horiz-adv-x="570" 
d="M285 -12q-100 0 -162.5 72.5t-62.5 181.5q0 108 62.5 180.5t162.5 72.5q101 0 163 -72t62 -181t-62 -181.5t-163 -72.5zM285 15q89 0 140.5 66.5t51.5 160.5q0 93 -51.5 159.5t-140.5 66.5q-88 0 -140 -66.5t-52 -159.5q0 -94 52 -160.5t140 -66.5zM327 700l-115 -144
h-26l100 144h41zM463 700l-115 -144h-26l100 144h41z" />
    <glyph glyph-name="OE" unicode="&#x152;" horiz-adv-x="1124" 
d="M1059 0h-408v157q-39 -81 -111 -125t-158 -44q-143 0 -230 98.5t-87 246.5t87 246t230 98q86 0 158 -43.5t111 -123.5v157h408v-30h-376v-279h369v-30h-369v-298h376v-30zM651 218v231q-34 98 -104.5 148t-164.5 50q-128 0 -205 -87.5t-77 -226.5t77 -227t205 -88
q93 0 164 51t105 149z" />
    <glyph glyph-name="oe" unicode="&#x153;" horiz-adv-x="988" 
d="M928 232h-417q2 -92 57.5 -154.5t145.5 -62.5q100 0 168 73l18 -19q-78 -81 -186 -81q-50 0 -90.5 16.5t-66 42.5t-41 52.5t-22.5 52.5q-8 -26 -21.5 -51t-37.5 -52t-63 -44t-87 -17q-100 0 -162.5 72.5t-62.5 181.5q0 108 62.5 180.5t162.5 72.5q48 0 88 -17t64 -44.5
t37.5 -53t19.5 -49.5q7 25 22 51t39.5 52.5t63.5 43.5t85 17q106 0 165 -73t59 -180v-10zM511 259h385q0 49 -20 95.5t-65.5 80t-107.5 33.5q-87 0 -138 -64.5t-54 -144.5zM477 242q0 93 -51.5 159.5t-140.5 66.5q-88 0 -140 -66.5t-52 -159.5q0 -94 52 -161t140 -67
q89 0 140.5 67t51.5 161z" />
    <glyph glyph-name="Racute" unicode="&#x154;" horiz-adv-x="579" 
d="M524 0h-41l-203 288h-160v-288h-32v667h230q85 0 141 -50.5t56 -138.5t-56.5 -139t-140.5 -51zM318 318q73 0 117.5 45t44.5 115t-44.5 114.5t-117.5 44.5h-198v-319h198zM442 872l-175 -144h-30l160 144h45z" />
    <glyph glyph-name="racute" unicode="&#x155;" horiz-adv-x="304" 
d="M116 0h-30v483h30v-88q73 97 166 97v-36q-9 1 -24 1q-37 0 -81 -30t-61 -65v-362zM335 700l-175 -144h-30l160 144h45z" />
    <glyph glyph-name="Rcommaaccent" unicode="&#x156;" horiz-adv-x="579" 
d="M524 0h-41l-203 288h-160v-288h-32v667h230q85 0 141 -50.5t56 -138.5t-56.5 -139t-140.5 -51zM318 318q73 0 117.5 45t44.5 115t-44.5 114.5t-117.5 44.5h-198v-319h198zM334 -137q0 -36 -18 -69.5t-44 -51.5l-22 18q24 18 38.5 43.5t14.5 48.5q-6 -1 -8 -1
q-14 0 -23 9.5t-9 23.5q0 13 9 22.5t23 9.5q16 0 27.5 -14t11.5 -39z" />
    <glyph glyph-name="rcommaaccent" unicode="&#x157;" horiz-adv-x="304" 
d="M116 0h-30v483h30v-88q73 97 166 97v-36q-9 1 -24 1q-37 0 -81 -30t-61 -65v-362zM197 -137q0 -36 -18 -69.5t-44 -51.5l-22 18q24 18 38.5 43.5t14.5 48.5q-6 -1 -8 -1q-14 0 -23 9.5t-9 23.5q0 13 9 22.5t23 9.5q16 0 27.5 -14t11.5 -39z" />
    <glyph glyph-name="Rcaron" unicode="&#x158;" horiz-adv-x="579" 
d="M524 0h-41l-203 288h-160v-288h-32v667h230q85 0 141 -50.5t56 -138.5t-56.5 -139t-140.5 -51zM318 318q73 0 117.5 45t44.5 115t-44.5 114.5t-117.5 44.5h-198v-319h198zM309 728h-36l-101 144h28l91 -120l88 120h28z" />
    <glyph glyph-name="rcaron" unicode="&#x159;" horiz-adv-x="304" 
d="M116 0h-30v483h30v-88q73 97 166 97v-36q-9 1 -24 1q-37 0 -81 -30t-61 -65v-362zM201 556h-36l-101 144h28l91 -120l88 120h28z" />
    <glyph glyph-name="Sacute" unicode="&#x15a;" horiz-adv-x="575" 
d="M286 -12q-75 0 -135 29t-98 77l26 23q81 -99 207 -99q55 0 95 14.5t60 38t29 48t9 50.5q0 51 -30 85.5t-75 49.5t-97.5 31.5t-97.5 32t-75 51.5t-30 89q0 78 61 124t148 46q140 0 216 -94l-25 -23q-67 87 -191 87q-74 0 -124 -39.5t-50 -100.5q0 -38 22.5 -65t58 -42
t79 -27.5t86.5 -27t78.5 -34.5t58 -56.5t22.5 -86.5q0 -31 -11 -60.5t-35 -58t-71 -45.5t-111 -17zM440 872l-175 -144h-30l160 144h45z" />
    <glyph glyph-name="sacute" unicode="&#x15b;" horiz-adv-x="454" 
d="M221 -12q-110 0 -177 77l24 22q54 -72 153 -72q65 0 104 31.5t39 80.5q0 41 -32 65t-77.5 35.5t-91 24t-77.5 40.5t-32 75q0 55 44 91.5t120 36.5q109 0 166 -73l-22 -20q-46 66 -144 66q-62 0 -98 -28.5t-36 -72.5q0 -37 32 -58.5t77.5 -32.5t91 -24t77.5 -43.5
t32 -81.5q0 -60 -44.5 -99.5t-128.5 -39.5zM379 700l-175 -144h-30l160 144h45z" />
    <glyph glyph-name="Scircumflex" unicode="&#x15c;" horiz-adv-x="575" 
d="M397 728h-28l-91 120l-88 -120h-28l98 144h36zM286 -12q-75 0 -135 29t-98 77l26 23q81 -99 207 -99q55 0 95 14.5t60 38t29 48t9 50.5q0 51 -30 85.5t-75 49.5t-97.5 31.5t-97.5 32t-75 51.5t-30 89q0 78 61 124t148 46q140 0 216 -94l-25 -23q-67 87 -191 87
q-74 0 -124 -39.5t-50 -100.5q0 -38 22.5 -65t58 -42t79 -27.5t86.5 -27t78.5 -34.5t58 -56.5t22.5 -86.5q0 -31 -11 -60.5t-35 -58t-71 -45.5t-111 -17z" />
    <glyph glyph-name="scircumflex" unicode="&#x15d;" horiz-adv-x="454" 
d="M221 -12q-110 0 -177 77l24 22q54 -72 153 -72q65 0 104 31.5t39 80.5q0 41 -32 65t-77.5 35.5t-91 24t-77.5 40.5t-32 75q0 55 44 91.5t120 36.5q109 0 166 -73l-22 -20q-46 66 -144 66q-62 0 -98 -28.5t-36 -72.5q0 -37 32 -58.5t77.5 -32.5t91 -24t77.5 -43.5
t32 -81.5q0 -60 -44.5 -99.5t-128.5 -39.5zM339 556h-28l-91 120l-88 -120h-28l98 144h36z" />
    <glyph glyph-name="Scedilla" unicode="&#x15e;" horiz-adv-x="575" 
d="M284 -187q-58 0 -93 28l14 27q32 -28 79 -28q29 0 49 13.5t20 35.5q0 43 -44 43q-27 0 -43 -19l-22 13l22 63q-136 7 -213 105l26 23q81 -99 207 -99q55 0 95 14.5t60 38t29 48t9 50.5q0 51 -30 85.5t-75 49.5t-97.5 31.5t-97.5 32t-75 51.5t-30 89q0 78 61 124t148 46
q140 0 216 -94l-25 -23q-67 87 -191 87q-74 0 -124 -39.5t-50 -100.5q0 -38 22.5 -65t58 -42t79 -27.5t86.5 -27t78.5 -34.5t58 -56.5t22.5 -86.5q0 -69 -51 -123.5t-167 -57.5l-17 -46q15 12 38 12q29 0 47 -17.5t18 -47.5q0 -33 -28 -54.5t-70 -21.5z" />
    <glyph glyph-name="scedilla" unicode="&#x15f;" horiz-adv-x="454" 
d="M220 -187q-58 0 -93 28l14 27q32 -28 79 -28q29 0 49 13.5t20 35.5q0 43 -44 43q-27 0 -43 -19l-22 13l22 63q-96 4 -158 76l24 22q54 -72 153 -72q65 0 104 31.5t39 80.5q0 41 -32 65t-77.5 35.5t-91 24t-77.5 40.5t-32 75q0 55 44 91.5t120 36.5q109 0 166 -73l-22 -20
q-46 66 -144 66q-62 0 -98 -28.5t-36 -72.5q0 -37 32 -58.5t77.5 -32.5t91 -24t77.5 -43.5t32 -81.5q0 -58 -42 -97t-120 -42l-17 -46q15 12 38 12q29 0 47 -17.5t18 -47.5q0 -33 -28 -54.5t-70 -21.5z" />
    <glyph glyph-name="Scaron" unicode="&#x160;" horiz-adv-x="575" 
d="M299 728h-36l-101 144h28l91 -120l88 120h28zM286 -12q-75 0 -135 29t-98 77l26 23q81 -99 207 -99q55 0 95 14.5t60 38t29 48t9 50.5q0 51 -30 85.5t-75 49.5t-97.5 31.5t-97.5 32t-75 51.5t-30 89q0 78 61 124t148 46q140 0 216 -94l-25 -23q-67 87 -191 87
q-74 0 -124 -39.5t-50 -100.5q0 -38 22.5 -65t58 -42t79 -27.5t86.5 -27t78.5 -34.5t58 -56.5t22.5 -86.5q0 -31 -11 -60.5t-35 -58t-71 -45.5t-111 -17z" />
    <glyph glyph-name="scaron" unicode="&#x161;" horiz-adv-x="454" 
d="M221 -12q-110 0 -177 77l24 22q54 -72 153 -72q65 0 104 31.5t39 80.5q0 41 -32 65t-77.5 35.5t-91 24t-77.5 40.5t-32 75q0 55 44 91.5t120 36.5q109 0 166 -73l-22 -20q-46 66 -144 66q-62 0 -98 -28.5t-36 -72.5q0 -37 32 -58.5t77.5 -32.5t91 -24t77.5 -43.5
t32 -81.5q0 -60 -44.5 -99.5t-128.5 -39.5zM241 556h-36l-101 144h28l91 -120l88 120h28z" />
    <glyph glyph-name="Tcommaaccent" unicode="&#x162;" horiz-adv-x="559" 
d="M295 0h-32v637h-225v30h483v-30h-226v-637zM324 -137q0 -36 -18 -69.5t-44 -51.5l-22 18q24 18 38.5 43.5t14.5 48.5q-6 -1 -8 -1q-14 0 -23 9.5t-9 23.5q0 13 9 22.5t23 9.5q16 0 27.5 -14t11.5 -39z" />
    <glyph glyph-name="Tcommaaccent" unicode="&#x21a;" horiz-adv-x="559" 
d="M295 0h-32v637h-225v30h483v-30h-226v-637zM324 -137q0 -36 -18 -69.5t-44 -51.5l-22 18q24 18 38.5 43.5t14.5 48.5q-6 -1 -8 -1q-14 0 -23 9.5t-9 23.5q0 13 9 22.5t23 9.5q16 0 27.5 -14t11.5 -39z" />
    <glyph glyph-name="tcommaaccent" unicode="&#x163;" horiz-adv-x="256" 
d="M174 -12q-82 0 -82 97v371h-80v27h80v132h30v-132h98v-27h-98v-371q0 -70 52 -70q35 0 57 26l18 -23q-32 -30 -75 -30zM173 -137q0 -36 -18 -69.5t-44 -51.5l-22 18q24 18 38.5 43.5t14.5 48.5q-6 -1 -8 -1q-14 0 -23 9.5t-9 23.5q0 13 9 22.5t23 9.5q16 0 27.5 -14
t11.5 -39z" />
    <glyph glyph-name="tcommaaccent" unicode="&#x21b;" horiz-adv-x="256" 
d="M174 -12q-82 0 -82 97v371h-80v27h80v132h30v-132h98v-27h-98v-371q0 -70 52 -70q35 0 57 26l18 -23q-32 -30 -75 -30zM173 -137q0 -36 -18 -69.5t-44 -51.5l-22 18q24 18 38.5 43.5t14.5 48.5q-6 -1 -8 -1q-14 0 -23 9.5t-9 23.5q0 13 9 22.5t23 9.5q16 0 27.5 -14
t11.5 -39z" />
    <glyph glyph-name="Tcaron" unicode="&#x164;" horiz-adv-x="559" 
d="M295 0h-32v637h-225v30h483v-30h-226v-637zM299 728h-36l-101 144h28l91 -120l88 120h28z" />
    <glyph glyph-name="tcaron" unicode="&#x165;" horiz-adv-x="256" 
d="M174 -12q-82 0 -82 97v371h-80v27h80v132h30v-132h98v-27h-98v-371q0 -70 52 -70q35 0 57 26l18 -23q-32 -30 -75 -30zM260 672q0 -36 -18 -69.5t-44 -51.5l-22 18q24 18 38.5 43.5t14.5 48.5q-6 -1 -8 -1q-14 0 -23 9.5t-9 23.5q0 13 9 22.5t23 9.5q16 0 27.5 -14
t11.5 -39z" />
    <glyph glyph-name="Tbar" unicode="&#x166;" horiz-adv-x="559" 
d="M295 0h-32v321h-165v27h165v289h-225v30h483v-30h-226v-289h166v-27h-166v-321z" />
    <glyph glyph-name="tbar" unicode="&#x167;" horiz-adv-x="256" 
d="M194 242h-72v-157q0 -70 52 -70q35 0 57 26l18 -23q-32 -30 -75 -30q-82 0 -82 97v157h-80v27h80v187h-80v27h80v132h30v-132h98v-27h-98v-187h72v-27z" />
    <glyph glyph-name="Utilde" unicode="&#x168;" horiz-adv-x="672" 
d="M336 -12q-120 0 -184 70t-64 195v414h32v-414q0 -112 56 -173.5t160 -61.5t160 61.5t56 173.5v414h32v-414q0 -125 -64 -195t-184 -70zM401 726q-26 0 -44.5 17.5t-27 39t-23 39t-33.5 17.5q-26 0 -42.5 -26.5t-16.5 -80.5h-26q0 57 23.5 95.5t64.5 38.5q26 0 44.5 -17.5
t27 -39t23 -39t33.5 -17.5q26 0 42.5 26.5t16.5 80.5h26q0 -57 -23.5 -95.5t-64.5 -38.5z" />
    <glyph glyph-name="utilde" unicode="&#x169;" horiz-adv-x="528" 
d="M442 0h-30v74q-33 -37 -80 -61.5t-95 -24.5q-75 0 -113 36.5t-38 119.5v339h30v-339q0 -72 32 -100.5t93 -28.5q48 0 96.5 25.5t74.5 62.5v380h30v-483zM326 554q-26 0 -44.5 17.5t-27 39t-23 39t-33.5 17.5q-26 0 -42.5 -26.5t-16.5 -80.5h-26q0 57 23.5 95.5t64.5 38.5
q26 0 44.5 -17.5t27 -39t23 -39t33.5 -17.5q26 0 42.5 26.5t16.5 80.5h26q0 -57 -23.5 -95.5t-64.5 -38.5z" />
    <glyph glyph-name="Umacron" unicode="&#x16a;" horiz-adv-x="672" 
d="M336 -12q-120 0 -184 70t-64 195v414h32v-414q0 -112 56 -173.5t160 -61.5t160 61.5t56 173.5v414h32v-414q0 -125 -64 -195t-184 -70zM517 750h-363v27h363v-27z" />
    <glyph glyph-name="umacron" unicode="&#x16b;" horiz-adv-x="528" 
d="M442 0h-30v74q-33 -37 -80 -61.5t-95 -24.5q-75 0 -113 36.5t-38 119.5v339h30v-339q0 -72 32 -100.5t93 -28.5q48 0 96.5 25.5t74.5 62.5v380h30v-483zM445 581h-363v27h363v-27z" />
    <glyph glyph-name="Ubreve" unicode="&#x16c;" horiz-adv-x="672" 
d="M336 -12q-120 0 -184 70t-64 195v414h32v-414q0 -112 56 -173.5t160 -61.5t160 61.5t56 173.5v414h32v-414q0 -125 -64 -195t-184 -70zM515 816q-65 -88 -175 -88q-109 0 -176 88l21 19q57 -80 155 -80t155 80z" />
    <glyph glyph-name="ubreve" unicode="&#x16d;" horiz-adv-x="528" 
d="M442 0h-30v74q-33 -37 -80 -61.5t-95 -24.5q-75 0 -113 36.5t-38 119.5v339h30v-339q0 -72 32 -100.5t93 -28.5q48 0 96.5 25.5t74.5 62.5v380h30v-483zM441 657q-65 -88 -175 -88q-109 0 -176 88l21 19q57 -80 155 -80t155 80z" />
    <glyph glyph-name="Uring" unicode="&#x16e;" horiz-adv-x="672" 
d="M336 -12q-120 0 -184 70t-64 195v414h32v-414q0 -112 56 -173.5t160 -61.5t160 61.5t56 173.5v414h32v-414q0 -125 -64 -195t-184 -70zM336 692q-38 0 -65.5 27.5t-27.5 65.5t27.5 65.5t65.5 27.5t65 -27.5t27 -65.5t-27 -65.5t-65 -27.5zM336 716q28 0 48 20t20 49
t-20 49t-48 20t-48.5 -20t-20.5 -49t20.5 -49t48.5 -20z" />
    <glyph glyph-name="uring" unicode="&#x16f;" horiz-adv-x="528" 
d="M442 0h-30v74q-33 -37 -80 -61.5t-95 -24.5q-75 0 -113 36.5t-38 119.5v339h30v-339q0 -72 32 -100.5t93 -28.5q48 0 96.5 25.5t74.5 62.5v380h30v-483zM264 560q-38 0 -65.5 27.5t-27.5 65.5t27.5 65.5t65.5 27.5t65 -27.5t27 -65.5t-27 -65.5t-65 -27.5zM264 584
q28 0 48 20t20 49t-20 49t-48 20t-48.5 -20t-20.5 -49t20.5 -49t48.5 -20z" />
    <glyph glyph-name="Uhungarumlaut" unicode="&#x170;" horiz-adv-x="672" 
d="M336 -12q-120 0 -184 70t-64 195v414h32v-414q0 -112 56 -173.5t160 -61.5t160 61.5t56 173.5v414h32v-414q0 -125 -64 -195t-184 -70zM378 872l-115 -144h-26l100 144h41zM514 872l-115 -144h-26l100 144h41z" />
    <glyph glyph-name="uhungarumlaut" unicode="&#x171;" horiz-adv-x="528" 
d="M442 0h-30v74q-33 -37 -80 -61.5t-95 -24.5q-75 0 -113 36.5t-38 119.5v339h30v-339q0 -72 32 -100.5t93 -28.5q48 0 96.5 25.5t74.5 62.5v380h30v-483zM306 700l-115 -144h-26l100 144h41zM442 700l-115 -144h-26l100 144h41z" />
    <glyph glyph-name="Uogonek" unicode="&#x172;" horiz-adv-x="672" 
d="M452 -112l25 -11q-22 -63 -83 -63q-35 0 -58 21t-23 63q0 50 46 91q-8 -1 -23 -1q-120 0 -184 70t-64 195v414h32v-414q0 -112 56 -173.5t160 -61.5t160 61.5t56 173.5v414h32v-414q0 -100 -41.5 -166t-121.5 -88q-79 -39 -79 -101q0 -57 52 -57q43 0 58 47z" />
    <glyph glyph-name="uogonek" unicode="&#x173;" horiz-adv-x="528" 
d="M470 -112l25 -11q-22 -63 -83 -63q-35 0 -58 21t-23 63q0 34 22.5 65t58.5 50v61q-33 -37 -80 -61.5t-95 -24.5q-75 0 -113 36.5t-38 119.5v339h30v-339q0 -72 32 -100.5t93 -28.5q48 0 96.5 25.5t74.5 62.5v380h30v-483q-82 -39 -82 -102q0 -57 52 -57q43 0 58 47z" />
    <glyph glyph-name="Wcircumflex" unicode="&#x174;" horiz-adv-x="852" 
d="M637 0h-38l-173 607l-173 -607h-38l-190 667h35l174 -619l175 619h34l175 -619l174 619h35zM544 728h-28l-91 120l-88 -120h-28l98 144h36z" />
    <glyph glyph-name="wcircumflex" unicode="&#x175;" horiz-adv-x="704" 
d="M522 0h-24l-146 438l-146 -438h-24l-160 483h33l140 -436l145 436h24l145 -436l140 436h33zM470 556h-28l-91 120l-88 -120h-28l98 144h36z" />
    <glyph glyph-name="Ycircumflex" unicode="&#x176;" horiz-adv-x="610" 
d="M424 728h-28l-91 120l-88 -120h-28l98 144h36zM321 0h-32v289l-268 378h41l243 -346l243 346h41l-268 -378v-289z" />
    <glyph glyph-name="ycircumflex" unicode="&#x177;" horiz-adv-x="471" 
d="M50 -189l6 28q18 -8 42 -8q25 0 42.5 14.5t33.5 51.5l44 100l-207 486h35l190 -448l189 448h35l-256 -597q-36 -82 -106 -82q-27 0 -48 7zM354 556h-28l-91 120l-88 -120h-28l98 144h36z" />
    <glyph glyph-name="Ydieresis" unicode="&#x178;" horiz-adv-x="610" 
d="M438 764q0 -11 -8.5 -19.5t-19.5 -8.5t-19.5 8.5t-8.5 19.5t8.5 19.5t19.5 8.5t19.5 -8.5t8.5 -19.5zM236 764q0 -11 -8.5 -19.5t-19.5 -8.5t-19.5 8.5t-8.5 19.5t8.5 19.5t19.5 8.5t19.5 -8.5t8.5 -19.5zM321 0h-32v289l-268 378h41l243 -346l243 346h41l-268 -378v-289
z" />
    <glyph glyph-name="Zacute" unicode="&#x179;" horiz-adv-x="578" 
d="M525 0h-472v30l427 607h-427v30h465v-30l-428 -607h435v-30zM441 872l-175 -144h-30l160 144h45z" />
    <glyph glyph-name="zacute" unicode="&#x17a;" horiz-adv-x="466" 
d="M406 0h-346v27l307 429h-307v27h342v-27l-309 -429h313v-27zM385 700l-175 -144h-30l160 144h45z" />
    <glyph glyph-name="Zdotaccent" unicode="&#x17b;" horiz-adv-x="578" 
d="M525 0h-472v30l427 607h-427v30h465v-30l-428 -607h435v-30zM289 736q-11 0 -20 8.5t-9 20.5t9 20.5t20 8.5q12 0 20.5 -8.5t8.5 -20.5t-8.5 -20.5t-20.5 -8.5z" />
    <glyph glyph-name="zdotaccent" unicode="&#x17c;" horiz-adv-x="466" 
d="M406 0h-346v27l307 429h-307v27h342v-27l-309 -429h313v-27zM233 591q-11 0 -20 8.5t-9 20.5t9 20.5t20 8.5q12 0 20.5 -8.5t8.5 -20.5t-8.5 -20.5t-20.5 -8.5z" />
    <glyph glyph-name="Zcaron" unicode="&#x17d;" horiz-adv-x="578" 
d="M308 728h-36l-101 144h28l91 -120l88 120h28zM525 0h-472v30l427 607h-427v30h465v-30l-428 -607h435v-30z" />
    <glyph glyph-name="zcaron" unicode="&#x17e;" horiz-adv-x="466" 
d="M406 0h-346v27l307 429h-307v27h342v-27l-309 -429h313v-27zM245 556h-36l-101 144h28l91 -120l88 120h28z" />
    <glyph glyph-name="longs" unicode="&#x17f;" horiz-adv-x="246" 
d="M130 0h-30v456h-80v27h80v51q0 67 32 105t89 38q45 0 82 -30l-18 -24q-29 27 -64 27q-91 0 -91 -116v-534z" />
    <glyph glyph-name="florin" unicode="&#x192;" horiz-adv-x="412" 
d="M72 -161h-32l95 428h-80v30h86l53 237q15 67 55.5 105t97.5 38q46 0 75 -30l-23 -24q-19 24 -52 24q-45 0 -77.5 -30t-43.5 -83l-53 -237h162v-30h-168z" />
    <glyph glyph-name="AEacute" unicode="&#x1fc;" horiz-adv-x="930" 
d="M865 0h-408v179h-286l-113 -179h-37l425 667h419v-30h-376v-279h369v-30h-369v-298h376v-30zM457 209v421l-269 -421h269zM625 872l-175 -144h-30l160 144h45z" />
    <glyph glyph-name="aeacute" unicode="&#x1fd;" horiz-adv-x="905" 
d="M845 232h-417q2 -92 57.5 -154.5t145.5 -62.5q100 0 168 73l18 -19q-78 -81 -186 -81q-130 0 -200 111q-67 -111 -200 -111q-68 0 -118.5 44t-50.5 118t50 117t119 43q102 0 167 -69v107q0 56 -39 88t-97 32q-92 0 -155 -76l-23 20q37 43 78 63t100 20q72 0 115.5 -33
t47.5 -96q26 56 77 92.5t119 36.5q106 0 165 -73t59 -180v-10zM428 259h385q0 49 -20 95.5t-65.5 80t-107.5 33.5q-87 0 -138 -64.5t-54 -144.5zM418 125q-20 38 -20 82q-56 76 -159 76q-65 0 -104.5 -38.5t-39.5 -95.5t39.5 -95.5t104.5 -38.5q119 0 179 110zM585 700
l-175 -144h-30l160 144h45z" />
    <glyph glyph-name="Oslashacute" unicode="&#x1fe;" horiz-adv-x="764" 
d="M536 872l-175 -144h-30l160 144h45zM382 -12q-92 0 -163 43l-18 -31h-36l29 48q-62 47 -95.5 121t-33.5 164q0 148 87 246.5t230 98.5q89 0 162 -43l19 32h36l-30 -50q62 -46 96 -120.5t34 -163.5q0 -148 -87.5 -246.5t-229.5 -98.5zM382 18q127 0 204.5 88.5t77.5 226.5
q0 169 -111 258l-318 -534q64 -39 147 -39zM100 333q0 -170 110 -258l318 534q-64 39 -146 39q-128 0 -205 -88t-77 -227z" />
    <glyph glyph-name="oslashacute" unicode="&#x1ff;" horiz-adv-x="570" 
d="M438 700l-175 -144h-30l160 144h45zM118 0h-34l42 56q-66 72 -66 186q0 108 62.5 180.5t162.5 72.5q76 0 133 -44l24 32h33l-37 -50q72 -72 72 -191q0 -109 -62 -181.5t-163 -72.5q-81 0 -139 49zM285 15q89 0 140.5 66.5t51.5 160.5q0 101 -57 166l-257 -347
q49 -46 122 -46zM93 242q0 -96 52 -160l255 345q-49 41 -115 41q-88 0 -140 -66.5t-52 -159.5z" />
    <glyph glyph-name="Scommaaccent" unicode="&#x218;" horiz-adv-x="575" 
d="M286 -12q-75 0 -135 29t-98 77l26 23q81 -99 207 -99q55 0 95 14.5t60 38t29 48t9 50.5q0 51 -30 85.5t-75 49.5t-97.5 31.5t-97.5 32t-75 51.5t-30 89q0 78 61 124t148 46q140 0 216 -94l-25 -23q-67 87 -191 87q-74 0 -124 -39.5t-50 -100.5q0 -38 22.5 -65t58 -42
t79 -27.5t86.5 -27t78.5 -34.5t58 -56.5t22.5 -86.5q0 -31 -11 -60.5t-35 -58t-71 -45.5t-111 -17zM327 -137q0 -36 -18 -69.5t-44 -51.5l-22 18q24 18 38.5 43.5t14.5 48.5q-6 -1 -8 -1q-14 0 -23 9.5t-9 23.5q0 13 9 22.5t23 9.5q16 0 27.5 -14t11.5 -39z" />
    <glyph glyph-name="scommaaccent" unicode="&#x219;" horiz-adv-x="454" 
d="M221 -12q-110 0 -177 77l24 22q54 -72 153 -72q65 0 104 31.5t39 80.5q0 41 -32 65t-77.5 35.5t-91 24t-77.5 40.5t-32 75q0 55 44 91.5t120 36.5q109 0 166 -73l-22 -20q-46 66 -144 66q-62 0 -98 -28.5t-36 -72.5q0 -37 32 -58.5t77.5 -32.5t91 -24t77.5 -43.5
t32 -81.5q0 -60 -44.5 -99.5t-128.5 -39.5zM272 -137q0 -36 -18 -69.5t-44 -51.5l-22 18q24 18 38.5 43.5t14.5 48.5q-6 -1 -8 -1q-14 0 -23 9.5t-9 23.5q0 13 9 22.5t23 9.5q16 0 27.5 -14t11.5 -39z" />
    <glyph glyph-name="hsuperior" unicode="&#x2b0;" horiz-adv-x="387" 
d="M318 326h-28v214q0 47 -21 66t-61 19q-31 0 -62 -17t-49 -40v-242h-28v434h28v-169q20 23 52.5 40t65.5 17q51 0 77 -25.5t26 -83.5v-213z" />
    <glyph glyph-name="hsuperior" unicode="&#xf637;" horiz-adv-x="387" 
d="M318 326h-28v214q0 47 -21 66t-61 19q-31 0 -62 -17t-49 -40v-242h-28v434h28v-169q20 23 52.5 40t65.5 17q51 0 77 -25.5t26 -83.5v-213z" />
    <glyph glyph-name="circumflex" unicode="&#x2c6;" horiz-adv-x="235" 
d="M235 556h-28l-91 120l-88 -120h-28l98 144h36z" />
    <glyph glyph-name="caron" unicode="&#x2c7;" horiz-adv-x="235" 
d="M137 556h-36l-101 144h28l91 -120l88 120h28z" />
    <glyph glyph-name="breve" unicode="&#x2d8;" horiz-adv-x="351" 
d="M351 657q-65 -88 -175 -88q-109 0 -176 88l21 19q57 -80 155 -80t155 80z" />
    <glyph glyph-name="dotaccent" unicode="&#x2d9;" horiz-adv-x="58" 
d="M29 591q-11 0 -20 8.5t-9 20.5t9 20.5t20 8.5q12 0 20.5 -8.5t8.5 -20.5t-8.5 -20.5t-20.5 -8.5z" />
    <glyph glyph-name="ring" unicode="&#x2da;" horiz-adv-x="185" 
d="M93 560q-38 0 -65.5 27.5t-27.5 65.5t27.5 65.5t65.5 27.5t65 -27.5t27 -65.5t-27 -65.5t-65 -27.5zM93 584q28 0 48 20t20 49t-20 49t-48 20q-29 0 -49 -20t-20 -49t20 -49t49 -20z" />
    <glyph glyph-name="ogonek" unicode="&#x2db;" horiz-adv-x="164" 
d="M139 -112l25 -11q-22 -63 -83 -63q-35 0 -58 21t-23 63q0 35 24.5 67.5t63.5 51.5l23 -17q-82 -39 -82 -102q0 -57 52 -57q43 0 58 47z" />
    <glyph glyph-name="tilde" unicode="&#x2dc;" horiz-adv-x="301" 
d="M213 554q-26 0 -44.5 17.5t-27 39t-23 39t-33.5 17.5q-26 0 -42.5 -26.5t-16.5 -80.5h-26q0 57 23.5 95.5t64.5 38.5q26 0 44.5 -17.5t27 -39t23 -39t33.5 -17.5q26 0 42.5 26.5t16.5 80.5h26q0 -57 -23.5 -95.5t-64.5 -38.5z" />
    <glyph glyph-name="hungarumlaut" unicode="&#x2dd;" horiz-adv-x="277" 
d="M141 700l-115 -144h-26l100 144h41zM277 700l-115 -144h-26l100 144h41z" />
    <glyph glyph-name="Delta" unicode="&#x394;" horiz-adv-x="636" 
d="M615 0h-594l278 667h38zM567 30l-249 600l-249 -600h498z" />
    <glyph glyph-name="Delta" unicode="&#x2206;" horiz-adv-x="636" 
d="M615 0h-594l278 667h38zM567 30l-249 600l-249 -600h498z" />
    <glyph glyph-name="Omega" unicode="&#x3a9;" horiz-adv-x="764" 
d="M84 0v30h147q-166 95 -166 303q0 148 87 246.5t230 98.5t230 -98.5t87 -246.5q0 -209 -166 -303h148v-30h-215v30q78 19 138 98t60 205q0 139 -77 226.5t-205 87.5t-205 -87.5t-77 -226.5q0 -126 60.5 -205t138.5 -98v-30h-215z" />
    <glyph glyph-name="Omega" unicode="&#x2126;" horiz-adv-x="764" 
d="M84 0v30h147q-166 95 -166 303q0 148 87 246.5t230 98.5t230 -98.5t87 -246.5q0 -209 -166 -303h148v-30h-215v30q78 19 138 98t60 205q0 139 -77 226.5t-205 87.5t-205 -87.5t-77 -226.5q0 -126 60.5 -205t138.5 -98v-30h-215z" />
    <glyph glyph-name="pi" unicode="&#x3c0;" horiz-adv-x="509" 
d="M389 0h-32v471h-205v-471h-32v471h-82v29h433v-29h-82v-471z" />
    <glyph glyph-name="endash" unicode="&#x2013;" horiz-adv-x="593" 
d="M563 227h-533v30h533v-30z" />
    <glyph glyph-name="emdash" unicode="&#x2014;" horiz-adv-x="833" 
d="M803 227h-773v30h773v-30z" />
    <glyph glyph-name="quoteleft" unicode="&#x2018;" horiz-adv-x="208" 
d="M55 556q0 36 18 69.5t44 51.5l22 -18q-24 -18 -38.5 -43.5t-14.5 -48.5q6 1 8 1q14 0 23 -9.5t9 -23.5q0 -13 -9 -22.5t-23 -9.5q-16 0 -27.5 14t-11.5 39z" />
    <glyph glyph-name="quoteright" unicode="&#x2019;" horiz-adv-x="208" 
d="M142 624q0 -36 -18 -69.5t-44 -51.5l-22 18q24 18 38.5 43.5t14.5 48.5q-6 -1 -8 -1q-14 0 -23 9.5t-9 23.5q0 13 9 22.5t23 9.5q16 0 27.5 -14t11.5 -39z" />
    <glyph glyph-name="quotesinglbase" unicode="&#x201a;" horiz-adv-x="208" 
d="M142 3q0 -36 -18 -69.5t-44 -51.5l-22 18q24 18 38.5 43.5t14.5 48.5q-6 -1 -8 -1q-14 0 -23 9.5t-9 23.5q0 13 9 22.5t23 9.5q16 0 27.5 -14t11.5 -39z" />
    <glyph glyph-name="quotedblleft" unicode="&#x201c;" horiz-adv-x="331" 
d="M66 556q0 36 18 69.5t44 51.5l22 -18q-24 -18 -38.5 -43.5t-14.5 -48.5q6 1 8 1q14 0 23 -9.5t9 -23.5q0 -13 -9 -22.5t-23 -9.5q-16 0 -27.5 14t-11.5 39zM189 556q0 36 18 69.5t44 51.5l22 -18q-24 -18 -38.5 -43.5t-14.5 -48.5q6 1 8 1q14 0 23 -9.5t9 -23.5
q0 -13 -9 -22.5t-23 -9.5q-16 0 -27.5 14t-11.5 39z" />
    <glyph glyph-name="quotedblright" unicode="&#x201d;" horiz-adv-x="331" 
d="M265 624q0 -36 -18 -69.5t-44 -51.5l-22 18q24 18 38.5 43.5t14.5 48.5q-6 -1 -8 -1q-14 0 -23 9.5t-9 23.5q0 13 9 22.5t23 9.5q16 0 27.5 -14t11.5 -39zM142 624q0 -36 -18 -69.5t-44 -51.5l-22 18q24 18 38.5 43.5t14.5 48.5q-6 -1 -8 -1q-14 0 -23 9.5t-9 23.5
q0 13 9 22.5t23 9.5q16 0 27.5 -14t11.5 -39z" />
    <glyph glyph-name="quotedblbase" unicode="&#x201e;" horiz-adv-x="331" 
d="M142 3q0 -36 -18 -69.5t-44 -51.5l-22 18q24 18 38.5 43.5t14.5 48.5q-6 -1 -8 -1q-14 0 -23 9.5t-9 23.5q0 13 9 22.5t23 9.5q16 0 27.5 -14t11.5 -39zM265 3q0 -36 -18 -69.5t-44 -51.5l-22 18q24 18 38.5 43.5t14.5 48.5q-6 -1 -8 -1q-14 0 -23 9.5t-9 23.5
q0 13 9 22.5t23 9.5q16 0 27.5 -14t11.5 -39z" />
    <glyph glyph-name="dagger" unicode="&#x2020;" horiz-adv-x="251" 
d="M226 539l-89 4l4 -216h-31l4 216l-89 -4v27l89 -3l-4 114h31l-4 -114l89 3v-27z" />
    <glyph glyph-name="daggerdbl" unicode="&#x2021;" horiz-adv-x="251" 
d="M226 566v-27l-89 4v-229l89 4v-27l-89 3l4 -114h-31l4 114l-89 -3v27l89 -4v229l-89 -4v27l89 -3l-4 114h31l-4 -114z" />
    <glyph glyph-name="bullet" unicode="&#x2022;" horiz-adv-x="358" 
d="M278 242q0 -40 -29 -68.5t-69 -28.5t-69 28.5t-29 68.5t29 69t69 29t69 -29t29 -69z" />
    <glyph glyph-name="ellipsis" unicode="&#x2026;" horiz-adv-x="624" 
d="M137 24q0 -14 -9.5 -23.5t-23.5 -9.5t-23.5 9.5t-9.5 23.5q0 13 10 22.5t23 9.5t23 -9.5t10 -22.5zM345 24q0 -14 -9.5 -23.5t-23.5 -9.5t-23.5 9.5t-9.5 23.5q0 13 10 22.5t23 9.5t23 -9.5t10 -22.5zM553 24q0 -14 -9.5 -23.5t-23.5 -9.5t-23.5 9.5t-9.5 23.5
q0 13 10 22.5t23 9.5t23 -9.5t10 -22.5z" />
    <glyph glyph-name="perthousand" unicode="&#x2030;" horiz-adv-x="1051" 
d="M342 513q0 -70 -43 -116t-110 -46t-110 46t-43 116q0 71 43 117.5t110 46.5t110 -46.5t43 -117.5zM590 667l-427 -667h-36l426 667h37zM673 150q0 -70 -43 -116t-110 -46t-110 46t-43 116q0 71 43 117.5t110 46.5t110 -46.5t43 -117.5zM309 513q0 57 -33.5 97t-86.5 40
q-52 0 -86 -40t-34 -97q0 -55 34 -95t86 -40q53 0 86.5 39.5t33.5 95.5zM640 150q0 57 -33.5 97t-86.5 40t-86.5 -40t-33.5 -97q0 -56 33.5 -95.5t86.5 -39.5t86.5 39.5t33.5 95.5zM1015 150q0 -70 -43 -116t-110 -46t-110 46t-43 116q0 71 43 117.5t110 46.5t110 -46.5
t43 -117.5zM982 150q0 57 -33.5 97t-86.5 40t-86.5 -40t-33.5 -97q0 -56 33.5 -95.5t86.5 -39.5t86.5 39.5t33.5 95.5z" />
    <glyph glyph-name="guilsinglleft" unicode="&#x2039;" horiz-adv-x="259" 
d="M229 63h-39l-160 180l160 177h39l-160 -177z" />
    <glyph glyph-name="guilsinglright" unicode="&#x203a;" horiz-adv-x="259" 
d="M229 243l-160 -180h-39l160 180l-160 177h39z" />
    <glyph glyph-name="fraction" unicode="&#x2044;" horiz-adv-x="121" 
d="M292 667l-427 -667h-36l426 667h37z" />
    <glyph glyph-name="fraction" unicode="&#x2215;" horiz-adv-x="121" 
d="M292 667l-427 -667h-36l426 667h37z" />
    <glyph glyph-name="zerosuperior" unicode="&#x2070;" 
d="M342 621q0 -81 -38 -144t-114 -63t-114 62.5t-38 144.5q0 51 14 96t50 77.5t88 32.5q76 0 114 -62t38 -144zM310 621q0 74 -29 127t-91 53q-43 0 -71.5 -28.5t-39 -67t-10.5 -84.5q0 -74 29.5 -127.5t91.5 -53.5t91 53.5t29 127.5z" />
    <glyph glyph-name="foursuperior" unicode="&#x2074;" 
d="M334 534h-62v-113h-29v113h-196v26l186 261h39v-261h62v-26zM243 560v232l-165 -232h165z" />
    <glyph glyph-name="fivesuperior" unicode="&#x2075;" 
d="M327 542q0 -58 -40 -93t-97 -35q-93 0 -138 66l20 19q42 -59 118 -59q47 0 77.5 29t30.5 72q0 47 -30.5 75t-77.5 28q-58 0 -103 -41l-23 11v207h236v-26h-206v-165q39 39 101 39q55 0 93.5 -33.5t38.5 -93.5z" />
    <glyph glyph-name="sixsuperior" unicode="&#x2076;" 
d="M334 540q0 -51 -38 -88.5t-100 -37.5q-77 0 -113.5 58.5t-36.5 148.5q0 85 38 145.5t117 60.5q69 0 111 -51l-18 -21q-36 46 -93 46q-64 0 -94.5 -52.5t-31.5 -127.5q0 -16 1 -23q16 25 50.5 47.5t74.5 22.5q59 0 96 -33t37 -95zM304 540q0 50 -29.5 76t-78.5 26
q-34 0 -66.5 -20t-51.5 -52q5 -53 34 -91.5t84 -38.5q51 0 79.5 31.5t28.5 68.5z" />
    <glyph glyph-name="sevensuperior" unicode="&#x2077;" horiz-adv-x="355" 
d="M307 801l-181 -380h-33l180 374h-235v26h269v-20z" />
    <glyph glyph-name="eightsuperior" unicode="&#x2078;" 
d="M329 521q0 -47 -40 -77t-99 -30q-60 0 -99.5 29.5t-39.5 77.5q0 40 31 67.5t76 38.5q-43 10 -71.5 34t-28.5 62q0 50 39.5 77t92.5 27t92.5 -27t39.5 -77q0 -38 -28 -62t-71 -34q45 -11 75.5 -38.5t30.5 -67.5zM293 722q0 37 -29.5 58t-73.5 21t-73.5 -21t-29.5 -58
q0 -62 103 -83q103 21 103 83zM299 522q0 30 -23.5 52.5t-45.5 30.5t-40 10q-18 -2 -40.5 -10t-46 -30.5t-23.5 -52.5q0 -37 32.5 -60t77.5 -23q44 0 76.5 23t32.5 60z" />
    <glyph glyph-name="ninesuperior" unicode="&#x2079;" 
d="M46 701q0 51 37.5 88.5t100.5 37.5q77 0 113.5 -58.5t36.5 -148.5q0 -85 -38.5 -145.5t-116.5 -60.5q-69 0 -111 51l18 21q34 -46 93 -46q64 0 94 53t31 128v22q-17 -25 -51 -47.5t-73 -22.5q-59 0 -96.5 33t-37.5 95zM75 701q0 -49 30 -75.5t78 -26.5q35 0 67.5 20
t51.5 53q-5 52 -34 90.5t-84 38.5q-51 0 -80 -31.5t-29 -68.5z" />
    <glyph glyph-name="parenleftsuperior" unicode="&#x207d;" horiz-adv-x="135" 
d="M125 365l-16 -9q-81 119 -81 265q0 144 81 265l16 -9q-33 -68 -49.5 -125t-16.5 -131t16.5 -132t49.5 -124z" />
    <glyph glyph-name="parenrightsuperior" unicode="&#x207e;" horiz-adv-x="135" 
d="M125 621q0 -144 -81 -265l-16 9q33 66 49.5 124t16.5 132t-16.5 131t-49.5 125l16 9q81 -121 81 -265z" />
    <glyph glyph-name="nsuperior" unicode="&#x207f;" horiz-adv-x="387" 
d="M318 326h-28v213q0 86 -82 86q-31 0 -62 -17t-49 -40v-242h-28v314h28v-49q20 23 52.5 40t64.5 17q59 0 81.5 -27t22.5 -82v-213z" />
    <glyph glyph-name="zeroinferior" unicode="&#x2080;" 
d="M342 54q0 -81 -38 -144t-114 -63t-114 62.5t-38 144.5q0 51 14 96t50 77.5t88 32.5q76 0 114 -62t38 -144zM310 54q0 74 -29 127t-91 53q-43 0 -71.5 -28.5t-39 -67t-10.5 -84.5q0 -74 29.5 -127.5t91.5 -53.5t91 53.5t29 127.5z" />
    <glyph glyph-name="oneinferior" unicode="&#x2081;" horiz-adv-x="192" 
d="M132 -146h-30v360l-63 -69l-19 20l85 89h27v-400z" />
    <glyph glyph-name="twoinferior" unicode="&#x2082;" 
d="M325 -146h-271v24q119 86 179.5 149t60.5 120q0 44 -29.5 65.5t-70.5 21.5q-78 0 -114 -53l-20 18q43 61 135 61q50 0 89 -28t39 -84q0 -64 -57.5 -126t-167.5 -142h227v-26z" />
    <glyph glyph-name="threeinferior" unicode="&#x2083;" 
d="M326 -39q0 -51 -37 -82.5t-101 -31.5q-48 0 -84 18.5t-54 47.5l20 17q40 -57 118 -57q50 0 79 23.5t29 64.5q0 44 -33 65.5t-84 21.5q-30 0 -36 -1v27q6 -1 36 -1q48 0 79.5 20t31.5 61q0 37 -30 58.5t-73 21.5q-67 0 -113 -52l-19 18q51 60 133 60q55 0 93 -28.5
t38 -76.5q0 -43 -28 -66t-61 -28q33 -3 64.5 -28.5t31.5 -71.5z" />
    <glyph glyph-name="fourinferior" unicode="&#x2084;" 
d="M334 -33h-62v-113h-29v113h-196v26l186 261h39v-261h62v-26zM243 -7v232l-165 -232h165z" />
    <glyph glyph-name="fiveinferior" unicode="&#x2085;" 
d="M327 -25q0 -58 -40 -93t-97 -35q-93 0 -138 66l20 19q42 -59 118 -59q47 0 77.5 29t30.5 72q0 47 -30.5 75t-77.5 28q-58 0 -103 -41l-23 11v207h236v-26h-206v-165q39 39 101 39q55 0 93.5 -33.5t38.5 -93.5z" />
    <glyph glyph-name="sixinferior" unicode="&#x2086;" 
d="M334 -27q0 -51 -38 -88.5t-100 -37.5q-77 0 -113.5 58.5t-36.5 148.5q0 85 38 145.5t117 60.5q69 0 111 -51l-18 -21q-36 46 -93 46q-64 0 -94.5 -52.5t-31.5 -127.5q0 -16 1 -23q16 25 50.5 47.5t74.5 22.5q59 0 96 -33t37 -95zM304 -27q0 49 -29.5 75.5t-78.5 26.5
q-34 0 -66.5 -20t-51.5 -52q5 -53 34 -91.5t84 -38.5q51 0 79.5 31.5t28.5 68.5z" />
    <glyph glyph-name="seveninferior" unicode="&#x2087;" horiz-adv-x="355" 
d="M307 234l-181 -380h-33l180 374h-235v26h269v-20z" />
    <glyph glyph-name="eightinferior" unicode="&#x2088;" 
d="M329 -46q0 -47 -40 -77t-99 -30q-60 0 -99.5 29.5t-39.5 77.5q0 40 31 67.5t76 38.5q-43 10 -71.5 34t-28.5 62q0 50 39.5 77t92.5 27t92.5 -27t39.5 -77q0 -38 -28 -62t-71 -34q45 -11 75.5 -38.5t30.5 -67.5zM293 155q0 37 -29.5 58t-73.5 21t-73.5 -21t-29.5 -58
q0 -62 103 -83q103 21 103 83zM299 -45q0 30 -23.5 52.5t-45.5 30.5t-40 10q-18 -2 -40.5 -10t-46 -30.5t-23.5 -52.5q0 -37 32.5 -60t77.5 -23q44 0 76.5 23t32.5 60z" />
    <glyph glyph-name="nineinferior" unicode="&#x2089;" 
d="M46 134q0 51 37.5 88.5t100.5 37.5q77 0 113.5 -58.5t36.5 -148.5q0 -85 -38.5 -145.5t-116.5 -60.5q-69 0 -111 51l18 21q34 -46 93 -46q64 0 94 53t31 128v22q-17 -25 -51 -47.5t-73 -22.5q-59 0 -96.5 33t-37.5 95zM75 134q0 -49 30 -75.5t78 -26.5q35 0 67.5 20
t51.5 53q-5 52 -34 90.5t-84 38.5q-51 0 -80 -31.5t-29 -68.5z" />
    <glyph glyph-name="parenleftinferior" unicode="&#x208d;" horiz-adv-x="135" 
d="M125 -202l-16 -9q-81 119 -81 265q0 144 81 265l16 -9q-33 -68 -49.5 -125t-16.5 -131t16.5 -132t49.5 -124z" />
    <glyph glyph-name="parenrightinferior" unicode="&#x208e;" horiz-adv-x="135" 
d="M125 54q0 -144 -81 -265l-16 9q33 66 49.5 124t16.5 132t-16.5 131t-49.5 125l16 9q81 -121 81 -265z" />
    <glyph glyph-name="colonmonetary" unicode="&#x20a1;" horiz-adv-x="667" 
d="M398 -12q-12 0 -32 2l-30 -90h-31l31 94q-48 8 -91 29l-41 -123h-31l46 138q-71 45 -112.5 121.5t-41.5 173.5q0 151 96 248t237 97q12 0 36 -2l31 92h31l-33 -97q45 -9 90 -34l44 131h31l-50 -147q27 -20 52 -48l-25 -22q-18 21 -38 37l-191 -569q7 -1 22 -1
q62 0 116.5 26t90.5 71l26 -21q-94 -106 -233 -106zM100 333q0 -85 34.5 -154t95.5 -110l194 578q-8 1 -26 1q-127 0 -212.5 -88t-85.5 -227zM255 53q41 -22 91 -31l196 584q-44 28 -89 36z" />
    <glyph glyph-name="frenchfranc" unicode="&#x20a3;" horiz-adv-x="545" 
d="M132 0h-32v161h-88v27h88v479h408v-30h-376v-279h369v-30h-369v-140h243v-27h-243v-161z" />
    <glyph glyph-name="lira" unicode="&#x20a4;" horiz-adv-x="491" 
d="M17 323v30h90q-56 62 -56 136q0 75 58.5 131.5t149.5 56.5q55 0 103.5 -28.5t71.5 -75.5l-26 -18q-15 36 -56 64t-93 28q-73 0 -124 -42.5t-51 -115.5q0 -70 60 -136h202v-30h-174q43 -47 53 -85h121v-30h-118v-3l1 -2q0 -50 -22.5 -84t-63.5 -65q28 10 55 10
q35 0 83.5 -24t78.5 -24q32 0 62 14t42 29l18 -27q-48 -46 -124 -46q-46 0 -90 24t-88 24q-39 0 -119 -41l-14 33q76 32 114 78t38 99l-1 2v3h-181v30h177q-11 36 -58 85h-119z" />
    <glyph glyph-name="uni20A6" unicode="&#x20a6;" horiz-adv-x="714" 
d="M614 0h-32l-184 251h-266v-251h-32v251h-88v27h88v119h-88v27h88v243h32l179 -243h271v243h32v-243h88v-27h-88v-119h88v-27h-88v-251zM331 397l88 -119h163v119h-251zM132 397v-119h246l-87 119h-159zM439 251l143 -193v193h-143zM132 615v-191h140z" />
    <glyph glyph-name="peseta" unicode="&#x20a7;" horiz-adv-x="608" 
d="M604 463h-79q-5 -75 -57.5 -124.5t-136.5 -49.5h-199v-289h-32v463h-88v30h88v174h231q85 0 137 -50t57 -124h79v-30zM132 637v-144h358q-5 64 -48.5 104t-111.5 40h-198zM330 319q68 0 111.5 40t48.5 104h-358v-144h198z" />
    <glyph glyph-name="rupee" unicode="&#x20a8;" horiz-adv-x="973" 
d="M524 0h-41l-203 288h-160v-288h-32v667h230q85 0 141 -50.5t56 -138.5t-56.5 -139t-140.5 -51zM318 318q73 0 117.5 45t44.5 115t-44.5 114.5t-117.5 44.5h-198v-319h198zM740 -12q-110 0 -177 77l24 22q54 -72 153 -72q65 0 104 31.5t39 80.5q0 41 -32 65t-77.5 35.5
t-91 24t-77.5 40.5t-32 75q0 55 44 91.5t120 36.5q109 0 166 -73l-22 -20q-46 66 -144 66q-62 0 -98 -28.5t-36 -72.5q0 -37 32 -58.5t77.5 -32.5t91 -24t77.5 -43.5t32 -81.5q0 -60 -44.5 -99.5t-128.5 -39.5z" />
    <glyph glyph-name="uni20A9" unicode="&#x20a9;" horiz-adv-x="852" 
d="M637 0h-38l-72 251h-203l-71 -251h-38l-72 251h-116v27h109l-34 119h-75v27h67l-69 243h35l68 -243h212l69 243h34l69 -243h211l69 243h35l-70 -243h69v-27h-76l-34 -119h110v-27h-118zM136 397l33 -119h130l33 119h-196zM519 397l34 -119h129l34 119h-197zM366 397
l-34 -119h187l-34 119h-119zM560 251l58 -203l57 203h-115zM177 251l57 -203l57 203h-114zM426 607l-53 -183h105z" />
    <glyph glyph-name="afii57636" unicode="&#x20aa;" horiz-adv-x="800" 
d="M498 0h-215v399h32v-370h183q184 0 184 178v343h32v-343q0 -102 -55 -154.5t-161 -52.5zM301 550q106 0 161 -52.5t55 -154.5v-193h-32v193q0 178 -184 178h-183v-521h-32v550h215z" />
    <glyph glyph-name="Euro" unicode="&#x20ac;" horiz-adv-x="684" 
d="M418 -12q-119 0 -208.5 71t-115.5 188h-55v30h50q-4 24 -4 56q0 20 4 58h-50v30h55q27 116 116.5 186.5t207.5 70.5q141 0 232 -105l-25 -22q-36 45 -90.5 71t-116.5 26q-105 0 -184 -62t-104 -165h348v-30h-354q-4 -25 -4 -58q0 -20 4 -56h354v-30h-348
q25 -104 104 -166.5t184 -62.5q62 0 116.5 26t90.5 71l26 -21q-94 -106 -233 -106z" />
    <glyph glyph-name="afii61289" unicode="&#x2113;" horiz-adv-x="432" 
d="M86 521v-436q0 -97 82 -97q45 0 75 30l-18 23q-23 -26 -57 -26q-52 0 -52 70v227l180 123q46 32 71 62t25 70q0 47 -41.5 78.5t-106.5 31.5q-69 0 -113.5 -45.5t-44.5 -110.5zM281 461l-165 -111v169q0 59 37.5 95t90.5 36q46 0 82 -23t36 -60q0 -30 -20 -54t-61 -52z
" />
    <glyph glyph-name="afii61352" unicode="&#x2116;" horiz-adv-x="1095" 
d="M602 0h-32l-450 615v-615h-32v667h32l450 -609v609h32v-667zM892 350q-68 0 -111 47.5t-43 117.5q0 71 43 118t111 47q69 0 112 -47t43 -118q0 -70 -43 -117.5t-112 -47.5zM892 376q58 0 92 40.5t34 98.5t-34 98t-92 40q-57 0 -90.5 -40t-33.5 -98t33.5 -98.5t90.5 -40.5
z" />
    <glyph glyph-name="published" unicode="&#x2117;" horiz-adv-x="778" 
d="M734 334q0 -142 -101 -243.5t-244 -101.5t-244 101.5t-101 243.5t101 243.5t244 101.5t244 -101.5t101 -243.5zM708 334q0 131 -94 225t-225 94t-225 -94t-94 -225t94 -225t225 -94t225 94t94 225zM545 422q0 -52 -36 -82t-89 -30h-112v-179h-29v405h141q53 0 89 -30.5
t36 -83.5zM516 422q0 40 -26 62.5t-70 22.5h-112v-168h112q44 0 70 22t26 61z" />
    <glyph glyph-name="servicemark" unicode="&#x2120;" horiz-adv-x="476" 
d="M439 447h-28v182l-75 -182h-8l-75 182v-182h-28v220h43l64 -160l64 160h43v-220zM188 506q0 -31 -22.5 -49t-64.5 -18q-55 0 -86 36l18 21q28 -32 66 -32q56 0 56 39q0 19 -21.5 30t-46.5 15t-46.5 19t-21.5 42q0 28 22.5 46t57.5 18q55 0 82 -32l-18 -19q-22 27 -63 27
q-21 0 -34.5 -10t-13.5 -26q0 -17 21 -27t47 -14.5t47 -20.5t21 -45z" />
    <glyph glyph-name="trademark" unicode="&#x2122;" horiz-adv-x="454" 
d="M419 447h-28v182l-75 -182h-8l-75 182v-182h-28v220h43l64 -160l64 160h43v-220zM169 641h-62v-194h-28v194h-62v26h152v-26z" />
    <glyph glyph-name="estimated" unicode="&#x212e;" horiz-adv-x="842" 
d="M811 324h-632q-5 0 -5 -5v-190q0 -14 9 -23q98 -103 240 -103q151 0 250 115h57q-54 -63 -135 -99.5t-174 -36.5q-161 0 -275.5 103t-114.5 248t114.5 248t275.5 103t275.5 -103t114.5 -248v-9zM668 349v191q0 14 -10 24q-97 99 -235 99q-140 0 -239 -102
q-10 -10 -10 -24v-188q0 -6 5 -6h485q4 0 4 6z" />
    <glyph glyph-name="onethird" unicode="&#x2153;" horiz-adv-x="755" 
d="M546 667l-427 -667h-36l426 667h37zM701 107q0 -51 -37 -82.5t-101 -31.5q-48 0 -84 18.5t-54 47.5l20 17q40 -57 118 -57q50 0 79 23.5t29 64.5q0 44 -33 65.5t-84 21.5q-30 0 -36 -1v27q6 -1 36 -1q48 0 79.5 20t31.5 61q0 37 -30 58.5t-73 21.5q-67 0 -113 -52l-19 18
q51 60 133 60q55 0 93 -28.5t38 -76.5q0 -43 -28 -66t-61 -28q33 -3 64.5 -28.5t31.5 -71.5zM132 267h-30v360l-63 -69l-19 20l85 89h27v-400z" />
    <glyph glyph-name="twothirds" unicode="&#x2154;" horiz-adv-x="881" 
d="M672 667l-427 -667h-36l426 667h37zM827 107q0 -51 -37 -82.5t-101 -31.5q-48 0 -84 18.5t-54 47.5l20 17q40 -57 118 -57q50 0 79 23.5t29 64.5q0 44 -33 65.5t-84 21.5q-30 0 -36 -1v27q6 -1 36 -1q48 0 79.5 20t31.5 61q0 37 -30 58.5t-73 21.5q-67 0 -113 -52l-19 18
q51 60 133 60q55 0 93 -28.5t38 -76.5q0 -43 -28 -66t-61 -28q33 -3 64.5 -28.5t31.5 -71.5zM325 267h-271v24q119 86 179.5 149t60.5 120q0 44 -29.5 65.5t-70.5 21.5q-78 0 -114 -53l-20 18q43 61 135 61q50 0 89 -28t39 -84q0 -64 -57.5 -126t-167.5 -142h227v-26z" />
    <glyph glyph-name="oneeighth" unicode="&#x215b;" horiz-adv-x="755" 
d="M546 667l-427 -667h-36l426 667h37zM704 100q0 -47 -40 -77t-99 -30q-60 0 -99.5 29.5t-39.5 77.5q0 40 31 67.5t76 38.5q-43 10 -71.5 34t-28.5 62q0 50 39.5 77t92.5 27t92.5 -27t39.5 -77q0 -38 -28 -62t-71 -34q45 -11 75.5 -38.5t30.5 -67.5zM668 301q0 37 -29.5 58
t-73.5 21t-73.5 -21t-29.5 -58q0 -62 103 -83q103 21 103 83zM674 101q0 30 -23.5 52.5t-45.5 30.5t-40 10q-18 -2 -40.5 -10t-46 -30.5t-23.5 -52.5q0 -37 32.5 -60t77.5 -23q44 0 76.5 23t32.5 60zM132 267h-30v360l-63 -69l-19 20l85 89h27v-400z" />
    <glyph glyph-name="threeeighths" unicode="&#x215c;" horiz-adv-x="881" 
d="M672 667l-427 -667h-36l426 667h37zM830 100q0 -47 -40 -77t-99 -30q-60 0 -99.5 29.5t-39.5 77.5q0 40 31 67.5t76 38.5q-43 10 -71.5 34t-28.5 62q0 50 39.5 77t92.5 27t92.5 -27t39.5 -77q0 -38 -28 -62t-71 -34q45 -11 75.5 -38.5t30.5 -67.5zM794 301q0 37 -29.5 58
t-73.5 21t-73.5 -21t-29.5 -58q0 -62 103 -83q103 21 103 83zM800 101q0 30 -23.5 52.5t-45.5 30.5t-40 10q-18 -2 -40.5 -10t-46 -30.5t-23.5 -52.5q0 -37 32.5 -60t77.5 -23q44 0 76.5 23t32.5 60zM326 374q0 -51 -37 -82.5t-101 -31.5q-48 0 -84 18.5t-54 47.5l20 17
q40 -57 118 -57q50 0 79 23.5t29 64.5q0 44 -33 65.5t-84 21.5q-30 0 -36 -1v27q6 -1 36 -1q48 0 79.5 20t31.5 61q0 37 -30 58.5t-73 21.5q-67 0 -113 -52l-19 18q51 60 133 60q55 0 93 -28.5t38 -76.5q0 -43 -28 -66t-61 -28q33 -3 64.5 -28.5t31.5 -71.5z" />
    <glyph glyph-name="fiveeighths" unicode="&#x215d;" horiz-adv-x="881" 
d="M672 667l-427 -667h-36l426 667h37zM830 100q0 -47 -40 -77t-99 -30q-60 0 -99.5 29.5t-39.5 77.5q0 40 31 67.5t76 38.5q-43 10 -71.5 34t-28.5 62q0 50 39.5 77t92.5 27t92.5 -27t39.5 -77q0 -38 -28 -62t-71 -34q45 -11 75.5 -38.5t30.5 -67.5zM794 301q0 37 -29.5 58
t-73.5 21t-73.5 -21t-29.5 -58q0 -62 103 -83q103 21 103 83zM800 101q0 30 -23.5 52.5t-45.5 30.5t-40 10q-18 -2 -40.5 -10t-46 -30.5t-23.5 -52.5q0 -37 32.5 -60t77.5 -23q44 0 76.5 23t32.5 60zM327 388q0 -58 -40 -93t-97 -35q-93 0 -138 66l20 19q42 -59 118 -59
q47 0 77.5 29t30.5 72q0 47 -30.5 75t-77.5 28q-58 0 -103 -41l-23 11v207h236v-26h-206v-165q39 39 101 39q55 0 93.5 -33.5t38.5 -93.5z" />
    <glyph glyph-name="seveneighths" unicode="&#x215e;" horiz-adv-x="793" 
d="M584 667l-427 -667h-36l426 667h37zM742 100q0 -47 -40 -77t-99 -30q-60 0 -99.5 29.5t-39.5 77.5q0 40 31 67.5t76 38.5q-43 10 -71.5 34t-28.5 62q0 50 39.5 77t92.5 27t92.5 -27t39.5 -77q0 -38 -28 -62t-71 -34q45 -11 75.5 -38.5t30.5 -67.5zM706 301q0 37 -29.5 58
t-73.5 21t-73.5 -21t-29.5 -58q0 -62 103 -83q103 21 103 83zM712 101q0 30 -23.5 52.5t-45.5 30.5t-40 10q-18 -2 -40.5 -10t-46 -30.5t-23.5 -52.5q0 -37 32.5 -60t77.5 -23q44 0 76.5 23t32.5 60zM307 647l-181 -380h-33l180 374h-235v26h269v-20z" />
    <glyph glyph-name="arrowleft" unicode="&#x2190;" horiz-adv-x="582" 
d="M538 211h-269l12 -130l-281 205l281 204l-12 -129h269v-150z" />
    <glyph glyph-name="arrowup" unicode="&#x2191;" horiz-adv-x="582" 
d="M216 17v269l-130 -12l205 281l204 -281l-129 12v-269h-150z" />
    <glyph glyph-name="arrowright" unicode="&#x2192;" horiz-adv-x="582" 
d="M584 286l-281 -205l12 130h-268v150h268l-12 129z" />
    <glyph glyph-name="arrowdown" unicode="&#x2193;" horiz-adv-x="582" 
d="M366 555v-269l130 12l-205 -281l-204 281l129 -12v269h150z" />
    <glyph glyph-name="partialdiff" unicode="&#x2202;" horiz-adv-x="570" 
d="M285 -12q-100 0 -162.5 72.5t-62.5 181.5q0 108 62.5 180.5t162.5 72.5q95 0 156 -85q-32 66 -106 131.5t-169 109.5l18 27q64 -31 120 -72.5t103.5 -96t75 -123.5t27.5 -144q0 -109 -62 -181.5t-163 -72.5zM285 15q89 0 140.5 66.5t51.5 160.5q0 93 -51.5 159.5
t-140.5 66.5q-88 0 -140 -66.5t-52 -159.5q0 -94 52 -160.5t140 -66.5z" />
    <glyph glyph-name="product" unicode="&#x220f;" horiz-adv-x="639" 
d="M487 -90h-32v727h-272v-727h-32v727h-113v30h563v-30h-114v-727z" />
    <glyph glyph-name="summation" unicode="&#x2211;" horiz-adv-x="567" 
d="M355 300l-254 337h404v30h-442v-30l254 -338l-255 -359v-30h443v30h-406z" />
    <glyph glyph-name="minus" unicode="&#x2212;" horiz-adv-x="494" 
d="M465 319h-436v30h436v-30z" />
    <glyph glyph-name="radical" unicode="&#x221a;" horiz-adv-x="762" 
d="M446 0h-35l-146 349l-175 -73l-12 28l201 84l150 -353l266 632h29z" />
    <glyph glyph-name="infinity" unicode="&#x221e;" horiz-adv-x="627" 
d="M173 180q-69 0 -106.5 46.5t-37.5 108.5q0 63 37 109t107 46q47 0 82.5 -33.5t57.5 -84.5q22 51 58 84.5t83 33.5q70 0 107 -46t37 -109q0 -62 -37.5 -108.5t-106.5 -46.5q-47 0 -83 33.5t-58 84.5q-22 -51 -57.5 -84.5t-82.5 -33.5zM454 211q53 0 82.5 35t29.5 89
q0 55 -29 90t-83 35q-76 0 -126 -125q50 -124 126 -124zM173 211q76 0 126 124q-50 125 -126 125q-54 0 -83 -35t-29 -90q0 -54 29.5 -89t82.5 -35z" />
    <glyph glyph-name="integral" unicode="&#x222b;" horiz-adv-x="326" 
d="M79 -100h-62v30h62q28 0 48.5 24t20.5 59v642q0 49 30 81t69 32h62v-30h-62q-28 0 -48.5 -24t-20.5 -59v-642q0 -49 -30 -81t-69 -32z" />
    <glyph glyph-name="approxequal" unicode="&#x2248;" horiz-adv-x="494" 
d="M29 220v36q46 -36 109 -36q48 0 104.5 32t112.5 32q62 0 110 -30v-36q-46 36 -110 36q-48 0 -104.5 -32t-112.5 -32q-61 0 -109 30zM29 414v36q46 -36 109 -36q48 0 104.5 32t112.5 32q62 0 110 -30v-36q-46 36 -110 36q-48 0 -104.5 -32t-112.5 -32q-61 0 -109 30z" />
    <glyph glyph-name="notequal" unicode="&#x2260;" horiz-adv-x="494" 
d="M112 93h-36l81 127h-128v30h147l107 168h-254v30h273l80 126h37l-81 -126h127v-30h-146l-107 -168h253v-30h-272z" />
    <glyph glyph-name="lessequal" unicode="&#x2264;" horiz-adv-x="494" 
d="M465 90l-436 234v21l436 235v-36l-395 -210l395 -208v-36zM465 0h-436v30h436v-30z" />
    <glyph glyph-name="greaterequal" unicode="&#x2265;" horiz-adv-x="494" 
d="M465 324l-436 -234v36l395 208l-395 210v36l436 -235v-21zM464 0h-436v30h436v-30z" />
    <glyph glyph-name="triangleright" unicode="&#x22b2;" horiz-adv-x="587" 
d="M589 286l-535 -309v618z" />
    <glyph glyph-name="triangleleft" unicode="&#x22b3;" horiz-adv-x="587" 
d="M535 595v-618l-535 309z" />
    <glyph glyph-name="uni2318" unicode="&#x2318;" horiz-adv-x="667" 
d="M233 154v81h-81q-33 0 -55.5 -23.5t-22.5 -57.5t23 -58t56 -24q34 0 57 24t23 58zM233 432v82q0 34 -22.5 57.5t-56.5 23.5t-57 -23.5t-23 -57.5t23 -58t57 -24h79zM265 265h137v137h-137v-137zM593 154q0 34 -22.5 57.5t-55.5 23.5h-81v-81q0 -34 23 -58t57 -24
q33 0 56 24t23 58zM593 514q0 34 -22.5 57.5t-56.5 23.5t-57 -23.5t-23 -57.5v-82h81q33 0 55.5 24t22.5 58zM625 154q0 -46 -32.5 -79t-78.5 -33t-79 33t-33 79v81h-137v-81q0 -46 -33 -79t-79 -33t-78.5 33t-32.5 79t32.5 78.5t78.5 32.5h80v137h-79q-46 0 -79 33t-33 79
t33 78.5t79 32.5t78.5 -32.5t32.5 -78.5v-82h137v82q0 46 33 78.5t79 32.5t78.5 -32.5t32.5 -78.5t-32.5 -79t-78.5 -33h-80v-137h80q46 0 78.5 -32.5t32.5 -78.5z" />
    <glyph glyph-name="uni2318" unicode="&#xf8ff;" horiz-adv-x="667" 
d="M233 154v81h-81q-33 0 -55.5 -23.5t-22.5 -57.5t23 -58t56 -24q34 0 57 24t23 58zM233 432v82q0 34 -22.5 57.5t-56.5 23.5t-57 -23.5t-23 -57.5t23 -58t57 -24h79zM265 265h137v137h-137v-137zM593 154q0 34 -22.5 57.5t-55.5 23.5h-81v-81q0 -34 23 -58t57 -24
q33 0 56 24t23 58zM593 514q0 34 -22.5 57.5t-56.5 23.5t-57 -23.5t-23 -57.5v-82h81q33 0 55.5 24t22.5 58zM625 154q0 -46 -32.5 -79t-78.5 -33t-79 33t-33 79v81h-137v-81q0 -46 -33 -79t-79 -33t-78.5 33t-32.5 79t32.5 78.5t78.5 32.5h80v137h-79q-46 0 -79 33t-33 79
t33 78.5t79 32.5t78.5 -32.5t32.5 -78.5v-82h137v82q0 46 33 78.5t79 32.5t78.5 -32.5t32.5 -78.5t-32.5 -79t-78.5 -33h-80v-137h80q46 0 78.5 -32.5t32.5 -78.5z" />
    <glyph glyph-name="blacksquare" unicode="&#x25a0;" horiz-adv-x="661" 
d="M618 0h-571v572h571v-572z" />
    <glyph glyph-name="triagup" unicode="&#x25b2;" horiz-adv-x="616" 
d="M617 29l-619 1l309 535z" />
    <glyph glyph-name="triagdn" unicode="&#x25bc;" horiz-adv-x="616" 
d="M617 510l-310 -535l-309 535h619z" />
    <glyph glyph-name="lozenge" unicode="&#x25ca;" horiz-adv-x="375" 
d="M198 0h-21l-158 334l158 333h21l158 -333zM188 41l132 293l-133 292l-132 -292z" />
    <glyph glyph-name="circlesolid" unicode="&#x25cf;" horiz-adv-x="695" 
d="M644 285q0 -123 -87 -210t-210 -87t-210 87t-87 210t87 210t210 87t210 -87t87 -210z" />
    <glyph glyph-name="blackstar" unicode="&#x2605;" horiz-adv-x="759" 
d="M759 421l-235 -171l90 -275l-235 170l-234 -170l89 275l-234 171h290l89 276l90 -276h290z" />
    <glyph glyph-name="ballotbox" unicode="&#x2610;" horiz-adv-x="661" 
d="M616 0h-571v572h571v-572zM584 30v512h-508v-512h508z" />
    <glyph glyph-name="boxchecked" unicode="&#x2611;" horiz-adv-x="661" 
d="M665 698l-69 -126h20v-572h-571v572h515l78 145zM584 30v512h-4l-244 -451l-202 246l25 23l173 -215l212 397h-468v-512h508z" />
    <glyph glyph-name="diamond" unicode="&#x2666;" horiz-adv-x="501" 
d="M501 285l-251 -250l-250 250l250 251z" />
    <glyph glyph-name="checkmark" unicode="&#x2713;" horiz-adv-x="531" 
d="M531 698l-329 -607l-202 246l25 23l173 -215l306 572z" />
    <glyph glyph-name="perthousand.onum" unicode="&#xf628;" horiz-adv-x="855" 
d="M282 426q0 -58 -36 -96.5t-92 -38.5q-55 0 -91 38.5t-36 96.5t36 97t91 39q56 0 92 -39t36 -97zM546 123q0 -58 -36 -96.5t-91 -38.5t-91 38.5t-36 96.5q0 59 36 97.5t91 38.5t91 -38.5t36 -97.5zM497 550l-384 -550h-36l382 550h38zM251 426q0 46 -27 78.5t-70 32.5
t-70 -32.5t-27 -78.5t27 -78t70 -32t70 32t27 78zM516 123q0 47 -27 79t-70 32t-70 -32t-27 -79q0 -46 27 -78t70 -32t70 32t27 78zM828 123q0 -58 -36 -96.5t-91 -38.5q-54 0 -90.5 40t-36.5 95q0 59 36 97.5t91 38.5t91 -38.5t36 -97.5zM798 123q0 47 -27 79t-70 32
t-70 -32t-27 -79q0 -46 27 -78t70 -32t70 32t27 78z" />
    <glyph glyph-name="zero.tzero" unicode="&#xf638;" horiz-adv-x="595" 
d="M298 -12q-91 0 -150 66l-32 -54h-36l47 79q-67 98 -67 254q0 62 13 120t39.5 109.5t74.5 83t111 31.5q89 0 148 -64l32 54h36l-48 -80q69 -97 69 -254q0 -61 -13 -119.5t-39.5 -110.5t-74 -83.5t-110.5 -31.5zM298 18q55 0 96 29t63 76.5t32.5 100t10.5 109.5
q0 138 -51 225l-284 -476q51 -64 133 -64zM95 333q0 -137 50 -223l284 475q-51 62 -131 62q-55 0 -96 -28.5t-63.5 -76t-33 -100t-10.5 -109.5z" />
    <glyph glyph-name="zero.tnum" unicode="&#xf639;" horiz-adv-x="577" 
d="M289 -12q-63 0 -111 31.5t-74.5 83.5t-39.5 110.5t-13 119.5q0 62 13 120t39.5 109.5t74.5 83t111 31.5t110.5 -31.5t74 -83t39.5 -109.5t13 -120q0 -61 -13 -119.5t-39.5 -110.5t-74 -83.5t-110.5 -31.5zM289 18q55 0 96 29t63 76.5t32.5 100t10.5 109.5t-10.5 109.5
t-32.5 100t-63 76t-96 28.5t-96 -28.5t-63.5 -76t-33 -100t-10.5 -109.5t10.5 -109.5t33 -100.5t63.5 -76.5t96 -28.5z" />
    <glyph glyph-name="two.tnum" unicode="&#xf63a;" horiz-adv-x="577" 
d="M491 0h-421v28q80 66 124 104.5t102.5 94.5t88 95t51 85.5t21.5 88.5q0 75 -49.5 113t-116.5 38q-62 0 -110 -24.5t-74 -65.5l-26 19q31 47 86.5 74t124.5 27q75 0 136 -45.5t61 -135.5q0 -33 -11.5 -67.5t-26.5 -63.5t-47 -67t-56.5 -63.5t-71.5 -68t-75 -66l-84 -70.5
h374v-30z" />
    <glyph glyph-name="three.tnum" unicode="&#xf63b;" horiz-adv-x="577" 
d="M290 -12q-75 0 -131.5 32t-84.5 80l28 16q61 -98 188 -98q83 0 132 42.5t49 116.5q0 77 -55 115t-138 38q-46 0 -56 -1v32q10 -1 56 -1q77 0 130 36t53 107q0 66 -49.5 105t-121.5 39q-58 0 -100.5 -22t-81.5 -68l-25 20q79 100 207 100q83 0 143 -46.5t60 -127.5
q0 -72 -45 -110.5t-97 -47.5q31 -3 64 -19.5t60.5 -56t27.5 -92.5q0 -83 -56.5 -136t-156.5 -53z" />
    <glyph glyph-name="four.tnum" unicode="&#xf63c;" horiz-adv-x="577" 
d="M411 0h-32v195h-315v33l305 439h42v-442h101v-30h-101v-195zM379 225v406l-280 -406h280z" />
    <glyph glyph-name="five.tnum" unicode="&#xf63d;" horiz-adv-x="577" 
d="M299 -12q-145 0 -216 112l26 19q67 -101 190 -101q77 0 128.5 51.5t51.5 128.5q0 83 -51 132.5t-129 49.5q-95 0 -168 -69l-27 16v340h364v-30h-332v-291q66 64 163 64q89 0 150.5 -56t61.5 -156q0 -94 -62.5 -152t-149.5 -58z" />
    <glyph glyph-name="six.tnum" unicode="&#xf63e;" horiz-adv-x="577" 
d="M302 -12q-62 0 -108.5 28.5t-72.5 78.5t-38.5 109.5t-12.5 128.5q0 65 12.5 123t39 109t74.5 81.5t112 30.5q112 0 175 -90l-24 -21q-56 81 -151 81q-56 0 -98 -28.5t-64.5 -77t-33 -103t-10.5 -115.5q0 -24 1 -36q25 42 81.5 80.5t121.5 38.5q94 0 152.5 -53.5
t58.5 -156.5q0 -83 -58 -145.5t-157 -62.5zM302 18q87 0 135 55.5t48 122.5q0 88 -49 134t-131 46q-59 0 -113 -36.5t-85 -93.5q4 -40 16 -78t34 -73t59.5 -56t85.5 -21z" />
    <glyph glyph-name="seven.tnum" unicode="&#xf63f;" horiz-adv-x="577" 
d="M202 0h-36l293 637h-379v30h417v-22z" />
    <glyph glyph-name="eight.tnum" unicode="&#xf640;" horiz-adv-x="577" 
d="M289 -12q-95 0 -155 49.5t-60 127.5q0 68 50.5 114.5t122.5 64.5q-68 16 -115 57.5t-47 104.5q0 82 61 126.5t143 44.5q81 0 142.5 -45t61.5 -126q0 -63 -47 -104.5t-115 -57.5q72 -18 122 -64.5t50 -114.5q0 -77 -60.5 -127t-153.5 -50zM289 359q23 4 45.5 12t54.5 24
t52 45t20 66q0 65 -49.5 103t-122.5 38t-122.5 -38t-49.5 -103q0 -37 20 -66t52.5 -45.5t54.5 -23.5t45 -12zM289 18q74 0 128 40.5t54 106.5q0 40 -22 73t-54.5 51.5t-59.5 28.5t-46 12q-19 -2 -46.5 -12t-60 -28.5t-54.5 -51.5t-22 -73q0 -66 54 -106.5t129 -40.5z" />
    <glyph glyph-name="nine.tnum" unicode="&#xf641;" horiz-adv-x="577" 
d="M269 -11q-112 0 -175 90l24 21q56 -81 151 -81q56 0 98 28.5t64.5 77t33 103t10.5 115.5q0 24 -1 36q-25 -42 -81.5 -80.5t-121.5 -38.5q-94 0 -152.5 53.5t-58.5 156.5q0 83 58 145.5t157 62.5q62 0 108.5 -28.5t72.5 -78.5t38.5 -109.5t12.5 -128.5q0 -65 -12.5 -123
t-39 -109t-74.5 -81.5t-112 -30.5zM272 290q59 0 113 36.5t85 93.5q-4 40 -16 78t-34 73t-59.5 56t-85.5 21q-87 0 -135 -55.5t-48 -122.5q0 -88 49 -134t131 -46z" />
    <glyph glyph-name="percent.onum" unicode="&#xf642;" horiz-adv-x="573" 
d="M282 426q0 -58 -36 -96.5t-92 -38.5q-55 0 -91 38.5t-36 96.5t36 97t91 39q56 0 92 -39t36 -97zM546 123q0 -58 -36 -96.5t-91 -38.5t-91 38.5t-36 96.5q0 59 36 97.5t91 38.5t91 -38.5t36 -97.5zM497 550l-384 -550h-36l382 550h38zM251 426q0 46 -27 78.5t-70 32.5
t-70 -32.5t-27 -78.5t27 -78t70 -32t70 32t27 78zM516 123q0 47 -27 79t-70 32t-70 -32t-27 -79q0 -46 27 -78t70 -32t70 32t27 78z" />
    <glyph glyph-name="zero.tonum" unicode="&#xf643;" horiz-adv-x="577" 
d="M526 275q0 -73 -23 -135.5t-78.5 -107t-135.5 -44.5q-61 0 -108 25t-74.5 67.5t-41.5 91.5t-14 103q0 73 23 136t79 107t136 44t135.5 -44t78.5 -107t23 -136zM491 275q0 67 -18.5 122.5t-66 95t-117.5 39.5t-117.5 -39.5t-66.5 -95t-19 -122.5t19 -122.5t66.5 -95
t117.5 -39.5t117 39.5t66 95t19 122.5z" />
    <glyph glyph-name="one.tonum" unicode="&#xf644;" horiz-adv-x="577" 
d="M348 0h-32v504l-105 -115l-22 23l129 138h30v-550z" />
    <glyph glyph-name="two.tonum" unicode="&#xf645;" horiz-adv-x="577" 
d="M483 0h-399v29q377 177 377 355q0 64 -48.5 106t-117.5 42q-63 0 -115.5 -25t-78.5 -65l-26 19q31 46 91 73.5t130 27.5q81 0 139 -49t58 -129q0 -98 -94.5 -191t-249.5 -163h334v-30z" />
    <glyph glyph-name="three.tonum" unicode="&#xf646;" horiz-adv-x="577" 
d="M290 -137q-75 0 -131.5 32t-84.5 80l28 16q61 -98 188 -98q83 0 132 42.5t49 116.5q0 77 -55 115t-138 38q-46 0 -56 -1v32q10 -1 56 -1q77 0 130 36t53 107q0 66 -49.5 105t-121.5 39q-58 0 -100.5 -22t-81.5 -68l-25 20q79 100 207 100q83 0 143 -46.5t60 -127.5
q0 -72 -45 -110.5t-97 -47.5q31 -3 64 -19.5t60.5 -56t27.5 -92.5q0 -83 -56.5 -136t-156.5 -53z" />
    <glyph glyph-name="four.tonum" unicode="&#xf647;" horiz-adv-x="577" 
d="M512 78h-101v-195h-32v195h-315v33l305 439h42v-442h101v-30zM379 108v406l-280 -406h280z" />
    <glyph glyph-name="five.tonum" unicode="&#xf648;" horiz-adv-x="577" 
d="M299 -129q-145 0 -216 112l26 19q67 -101 190 -101q77 0 128.5 51.5t51.5 128.5q0 83 -51 132.5t-129 49.5q-95 0 -168 -69l-27 16v340h364v-30h-332v-291q66 64 163 64q89 0 150.5 -56t61.5 -156q0 -94 -62.5 -152t-149.5 -58z" />
    <glyph glyph-name="six.tonum" unicode="&#xf649;" horiz-adv-x="577" 
d="M302 -12q-62 0 -108.5 28.5t-72.5 78.5t-38.5 109.5t-12.5 128.5q0 65 12.5 123t39 109t74.5 81.5t112 30.5q112 0 175 -90l-24 -21q-56 81 -151 81q-56 0 -98 -28.5t-64.5 -77t-33 -103t-10.5 -115.5q0 -24 1 -36q25 42 81.5 80.5t121.5 38.5q94 0 152.5 -53.5
t58.5 -156.5q0 -83 -58 -145.5t-157 -62.5zM302 18q87 0 135 55.5t48 122.5q0 88 -49 134t-131 46q-59 0 -113 -36.5t-85 -93.5q4 -40 16 -78t34 -73t59.5 -56t85.5 -21z" />
    <glyph glyph-name="seven.tonum" unicode="&#xf64a;" horiz-adv-x="577" 
d="M202 -117h-36l293 637h-379v30h417v-22z" />
    <glyph glyph-name="eight.tonum" unicode="&#xf64b;" horiz-adv-x="577" 
d="M289 -12q-95 0 -155 49.5t-60 127.5q0 68 50.5 114.5t122.5 64.5q-68 16 -115 57.5t-47 104.5q0 82 61 126.5t143 44.5q81 0 142.5 -45t61.5 -126q0 -63 -47 -104.5t-115 -57.5q72 -18 122 -64.5t50 -114.5q0 -77 -60.5 -127t-153.5 -50zM289 359q23 4 45.5 12t54.5 24
t52 45t20 66q0 65 -49.5 103t-122.5 38t-122.5 -38t-49.5 -103q0 -37 20 -66t52.5 -45.5t54.5 -23.5t45 -12zM289 18q74 0 128 40.5t54 106.5q0 40 -22 73t-54.5 51.5t-59.5 28.5t-46 12q-19 -2 -46.5 -12t-60 -28.5t-54.5 -51.5t-22 -73q0 -66 54 -106.5t129 -40.5z" />
    <glyph glyph-name="nine.tonum" unicode="&#xf64c;" horiz-adv-x="577" 
d="M269 -127q-112 0 -175 90l24 21q56 -81 151 -81q56 0 98 28.5t64.5 77t33 103t10.5 115.5q0 24 -1 36q-25 -42 -81.5 -80.5t-121.5 -38.5q-94 0 -152.5 53.5t-58.5 156.5q0 83 58 145.5t157 62.5q62 0 108.5 -28.5t72.5 -78.5t38.5 -109.5t12.5 -128.5q0 -65 -12.5 -123
t-39 -109t-74.5 -81.5t-112 -30.5zM272 174q59 0 113 36.5t85 93.5q-4 40 -16 78t-34 73t-59.5 56t-85.5 21q-87 0 -135 -55.5t-48 -122.5q0 -88 49 -134t131 -46z" />
    <glyph glyph-name="colonmonetary.onum" unicode="&#xf64d;" horiz-adv-x="580" 
d="M254 -53l17 51q-32 7 -67 25l-25 -76h-31l31 92q-56 38 -87.5 99.5t-31.5 137.5q0 125 83 205.5t205 80.5h6l13 37h30l-13 -39q36 -4 69 -18l19 57h31l-24 -70q39 -21 72 -57l-23 -20q-22 28 -58 49l-162 -481q20 -3 40 -3q54 0 103 22t77 59l24 -20q-82 -90 -204 -90
q-17 0 -49 4l-15 -45h-30zM94 276q0 -131 95 -206l156 463q-107 -2 -179 -73.5t-72 -183.5zM214 53q35 -20 66 -28l164 489q-34 14 -70 17z" />
    <glyph glyph-name="Euro.onum" unicode="&#xf64e;" horiz-adv-x="610" 
d="M420 324h-292q-4 -21 -4 -48q0 -30 4 -51h292v-30h-284q24 -81 90 -129.5t152 -48.5q54 0 103 22t77 59l24 -20q-82 -90 -204 -90q-101 0 -177 56.5t-101 150.5h-61v30h55q-4 21 -4 51q0 24 3 48h-54v30h61q24 94 100 151t178 57q122 0 203 -90l-23 -20q-30 39 -78 60
t-102 21q-87 0 -153.5 -49t-89.5 -130h285v-30z" />
    <glyph glyph-name="florin.onum" unicode="&#xf64f;" horiz-adv-x="341" 
d="M62 -119h-32l77 345h-57v27h62l37 164q16 72 47 108t84 36q42 0 71 -27l-23 -23q-16 20 -48 20q-41 0 -63.5 -29.5t-34.5 -84.5l-37 -164h126v-27h-132z" />
    <glyph glyph-name="numbersign.onum" unicode="&#xf650;" horiz-adv-x="479" 
d="M453 387l-8 -28h-95l-55 -164h97l-9 -29h-98l-55 -166h-33l56 166h-103l-55 -166h-33l56 166h-92l9 29h93l55 164h-94l8 28h95l55 163h33l-56 -163h102l56 163h33l-56 -163h94zM316 359h-100l-56 -164h102z" />
    <glyph glyph-name="sterling.onum" unicode="&#xf651;" horiz-adv-x="404" 
d="M13 223v30h97q-23 29 -34 44.5t-23.5 46.5t-12.5 63q0 64 48 109t123 45q45 0 86 -23.5t60 -60.5l-25 -15q-36 72 -121 72q-58 0 -99.5 -35t-41.5 -92q0 -17 4 -33.5t14 -35t16 -27.5t22.5 -31t20.5 -27h139v-30h-119q21 -39 21 -68q0 -68 -63 -107q9 3 23 3
q32 0 77 -16.5t67 -16.5q25 0 49.5 9.5t35.5 23.5l20 -25q-40 -38 -107 -38q-37 0 -71.5 17.5t-70.5 17.5q-34 0 -98 -32l-14 32q122 51 122 132q0 31 -25 68h-120z" />
    <glyph glyph-name="yen.onum" unicode="&#xf652;" horiz-adv-x="531" 
d="M284 0h-32v118h-230v30h230v89h-230v30h208l-213 283h41l210 -282l206 282h40l-209 -283h203v-30h-224v-89h224v-30h-224v-118z" />
    <glyph glyph-name="cent.onum" unicode="&#xf654;" horiz-adv-x="580" 
d="M332 -100v89q-117 5 -194.5 85t-77.5 202q0 121 77.5 200.5t194.5 84.5v54h30v-53q113 -6 189 -90l-23 -20q-61 75 -166 80v-515q109 7 166 81l24 -20q-77 -84 -190 -90v-88h-30zM94 276q0 -108 68 -180.5t170 -78.5v515q-103 -5 -170.5 -76.5t-67.5 -179.5z" />
    <glyph glyph-name="zero.dnom" unicode="&#xf655;" 
d="M342 200q0 -81 -38 -144t-114 -63t-114 62.5t-38 144.5q0 51 14 96t50 77.5t88 32.5q76 0 114 -62t38 -144zM310 200q0 74 -29 127t-91 53q-43 0 -71.5 -28.5t-39 -67t-10.5 -84.5q0 -74 29.5 -127.5t91.5 -53.5t91 53.5t29 127.5z" />
    <glyph glyph-name="one.dnom" unicode="&#xf656;" horiz-adv-x="192" 
d="M132 0h-30v360l-63 -69l-19 20l85 89h27v-400z" />
    <glyph glyph-name="two.dnom" unicode="&#xf657;" 
d="M325 0h-271v24q119 86 179.5 149t60.5 120q0 44 -29.5 65.5t-70.5 21.5q-78 0 -114 -53l-20 18q43 61 135 61q50 0 89 -28t39 -84q0 -64 -57.5 -126t-167.5 -142h227v-26z" />
    <glyph glyph-name="three.dnom" unicode="&#xf658;" 
d="M326 107q0 -51 -37 -82.5t-101 -31.5q-48 0 -84 18.5t-54 47.5l20 17q40 -57 118 -57q50 0 79 23.5t29 64.5q0 44 -33 65.5t-84 21.5q-30 0 -36 -1v27q6 -1 36 -1q48 0 79.5 20t31.5 61q0 37 -30 58.5t-73 21.5q-67 0 -113 -52l-19 18q51 60 133 60q55 0 93 -28.5
t38 -76.5q0 -43 -28 -66t-61 -28q33 -3 64.5 -28.5t31.5 -71.5z" />
    <glyph glyph-name="four.dnom" unicode="&#xf659;" 
d="M334 113h-62v-113h-29v113h-196v26l186 261h39v-261h62v-26zM243 139v232l-165 -232h165z" />
    <glyph glyph-name="five.dnom" unicode="&#xf65a;" 
d="M327 121q0 -58 -40 -93t-97 -35q-93 0 -138 66l20 19q42 -59 118 -59q47 0 77.5 29t30.5 72q0 47 -30.5 75t-77.5 28q-58 0 -103 -41l-23 11v207h236v-26h-206v-165q39 39 101 39q55 0 93.5 -33.5t38.5 -93.5z" />
    <glyph glyph-name="six.dnom" unicode="&#xf65b;" 
d="M334 119q0 -51 -38 -88.5t-100 -37.5q-77 0 -113.5 58.5t-36.5 148.5q0 85 38 145.5t117 60.5q69 0 111 -51l-18 -21q-36 46 -93 46q-64 0 -94.5 -52.5t-31.5 -127.5q0 -16 1 -23q16 25 50.5 47.5t74.5 22.5q59 0 96 -33t37 -95zM304 119q0 49 -29.5 75.5t-78.5 26.5
q-34 0 -66.5 -20t-51.5 -52q5 -53 34 -91.5t84 -38.5q51 0 79.5 31.5t28.5 68.5z" />
    <glyph glyph-name="seven.dnom" unicode="&#xf65c;" horiz-adv-x="355" 
d="M307 380l-181 -380h-33l180 374h-235v26h269v-20z" />
    <glyph glyph-name="eight.dnom" unicode="&#xf65d;" 
d="M329 100q0 -47 -40 -77t-99 -30q-60 0 -99.5 29.5t-39.5 77.5q0 40 31 67.5t76 38.5q-43 10 -71.5 34t-28.5 62q0 50 39.5 77t92.5 27t92.5 -27t39.5 -77q0 -38 -28 -62t-71 -34q45 -11 75.5 -38.5t30.5 -67.5zM293 301q0 37 -29.5 58t-73.5 21t-73.5 -21t-29.5 -58
q0 -62 103 -83q103 21 103 83zM299 101q0 30 -23.5 52.5t-45.5 30.5t-40 10q-18 -2 -40.5 -10t-46 -30.5t-23.5 -52.5q0 -37 32.5 -60t77.5 -23q44 0 76.5 23t32.5 60z" />
    <glyph glyph-name="nine.dnom" unicode="&#xf65e;" 
d="M46 280q0 51 37.5 88.5t100.5 37.5q77 0 113.5 -58.5t36.5 -148.5q0 -85 -38.5 -145.5t-116.5 -60.5q-69 0 -111 51l18 21q34 -46 93 -46q64 0 94 53t31 128v22q-17 -25 -51 -47.5t-73 -22.5q-59 0 -96.5 33t-37.5 95zM75 280q0 -49 30 -75.5t78 -26.5q35 0 67.5 20
t51.5 53q-5 52 -34 90.5t-84 38.5q-51 0 -80 -31.5t-29 -68.5z" />
    <glyph glyph-name="zero.numr" unicode="&#xf661;" 
d="M342 467q0 -81 -38 -144t-114 -63t-114 62.5t-38 144.5q0 51 14 96t50 77.5t88 32.5q76 0 114 -62t38 -144zM310 467q0 74 -29 127t-91 53q-43 0 -71.5 -28.5t-39 -67t-10.5 -84.5q0 -74 29.5 -127.5t91.5 -53.5t91 53.5t29 127.5z" />
    <glyph glyph-name="one.numr" unicode="&#xf662;" horiz-adv-x="192" 
d="M132 267h-30v360l-63 -69l-19 20l85 89h27v-400z" />
    <glyph glyph-name="two.numr" unicode="&#xf663;" 
d="M325 267h-271v24q119 86 179.5 149t60.5 120q0 44 -29.5 65.5t-70.5 21.5q-78 0 -114 -53l-20 18q43 61 135 61q50 0 89 -28t39 -84q0 -64 -57.5 -126t-167.5 -142h227v-26z" />
    <glyph glyph-name="three.numr" unicode="&#xf664;" 
d="M326 374q0 -51 -37 -82.5t-101 -31.5q-48 0 -84 18.5t-54 47.5l20 17q40 -57 118 -57q50 0 79 23.5t29 64.5q0 44 -33 65.5t-84 21.5q-30 0 -36 -1v27q6 -1 36 -1q48 0 79.5 20t31.5 61q0 37 -30 58.5t-73 21.5q-67 0 -113 -52l-19 18q51 60 133 60q55 0 93 -28.5
t38 -76.5q0 -43 -28 -66t-61 -28q33 -3 64.5 -28.5t31.5 -71.5z" />
    <glyph glyph-name="four.numr" unicode="&#xf665;" 
d="M334 380h-62v-113h-29v113h-196v26l186 261h39v-261h62v-26zM243 406v232l-165 -232h165z" />
    <glyph glyph-name="five.numr" unicode="&#xf666;" 
d="M327 388q0 -58 -40 -93t-97 -35q-93 0 -138 66l20 19q42 -59 118 -59q47 0 77.5 29t30.5 72q0 47 -30.5 75t-77.5 28q-58 0 -103 -41l-23 11v207h236v-26h-206v-165q39 39 101 39q55 0 93.5 -33.5t38.5 -93.5z" />
    <glyph glyph-name="six.numr" unicode="&#xf667;" 
d="M334 386q0 -51 -38 -88.5t-100 -37.5q-77 0 -113.5 58.5t-36.5 148.5q0 85 38 145.5t117 60.5q69 0 111 -51l-18 -21q-36 46 -93 46q-64 0 -94.5 -52.5t-31.5 -127.5q0 -16 1 -23q16 25 50.5 47.5t74.5 22.5q59 0 96 -33t37 -95zM304 386q0 50 -29.5 76t-78.5 26
q-34 0 -66.5 -20t-51.5 -52q5 -53 34 -91.5t84 -38.5q51 0 79.5 31.5t28.5 68.5z" />
    <glyph glyph-name="seven.numr" unicode="&#xf668;" horiz-adv-x="355" 
d="M307 647l-181 -380h-33l180 374h-235v26h269v-20z" />
    <glyph glyph-name="eight.numr" unicode="&#xf669;" 
d="M329 367q0 -47 -40 -77t-99 -30q-60 0 -99.5 29.5t-39.5 77.5q0 40 31 67.5t76 38.5q-43 10 -71.5 34t-28.5 62q0 50 39.5 77t92.5 27t92.5 -27t39.5 -77q0 -38 -28 -62t-71 -34q45 -11 75.5 -38.5t30.5 -67.5zM293 568q0 37 -29.5 58t-73.5 21t-73.5 -21t-29.5 -58
q0 -62 103 -83q103 21 103 83zM299 368q0 30 -23.5 52.5t-45.5 30.5t-40 10q-18 -2 -40.5 -10t-46 -30.5t-23.5 -52.5q0 -37 32.5 -60t77.5 -23q44 0 76.5 23t32.5 60z" />
    <glyph glyph-name="nine.numr" unicode="&#xf66a;" 
d="M46 547q0 51 37.5 88.5t100.5 37.5q77 0 113.5 -58.5t36.5 -148.5q0 -85 -38.5 -145.5t-116.5 -60.5q-69 0 -111 51l18 21q34 -46 93 -46q64 0 94 53t31 128v22q-17 -25 -51 -47.5t-73 -22.5q-59 0 -96.5 33t-37.5 95zM75 547q0 -49 30 -75.5t78 -26.5q35 0 67.5 20
t51.5 53q-5 52 -34 90.5t-84 38.5q-51 0 -80 -31.5t-29 -68.5z" />
    <glyph glyph-name="Abreve.smcp" unicode="&#xf66d;" horiz-adv-x="551" 
d="M258 550h35l241 -550h-36l-64 146h-317l-63 -146h-37zM422 175l-146 337l-147 -337h293zM452 697q-65 -88 -175 -88q-109 0 -176 88l21 19q57 -80 155 -80t155 80z" />
    <glyph glyph-name="Amacron.smcp" unicode="&#xf66e;" horiz-adv-x="551" 
d="M258 550h35l241 -550h-36l-64 146h-317l-63 -146h-37zM422 175l-146 337l-147 -337h293zM458 631h-363v27h363v-27z" />
    <glyph glyph-name="Aogonek.smcp" unicode="&#xf66f;" horiz-adv-x="551" 
d="M258 550h35l241 -550q-82 -39 -82 -102q0 -57 52 -57q43 0 58 47l25 -11q-22 -63 -83 -63q-35 0 -58 21t-23 63q0 65 71 110l-60 138h-317l-63 -146h-37zM422 175l-146 337l-147 -337h293z" />
    <glyph glyph-name="AEacute.smcp" unicode="&#xf670;" horiz-adv-x="801" 
d="M555 750l-175 -144h-30l160 144h45zM741 0h-355v146h-238l-94 -146h-37l359 550h365v-29h-323v-223h317v-29h-317v-240h323v-29zM386 175v337l-220 -337h220z" />
    <glyph glyph-name="Cacute.smcp" unicode="&#xf671;" horiz-adv-x="580" 
d="M348 -12q-122 0 -205 81t-83 207q0 125 83 205.5t205 80.5t203 -90l-23 -20q-30 39 -78 60t-102 21q-108 0 -181 -72t-73 -185q0 -112 73 -185.5t181 -73.5q54 0 103 22t77 59l24 -20q-82 -90 -204 -90zM501 750l-175 -144h-30l160 144h45z" />
    <glyph glyph-name="Ccaron.smcp" unicode="&#xf672;" horiz-adv-x="580" 
d="M348 -12q-122 0 -205 81t-83 207q0 125 83 205.5t205 80.5t203 -90l-23 -20q-30 39 -78 60t-102 21q-108 0 -181 -72t-73 -185q0 -112 73 -185.5t181 -73.5q54 0 103 22t77 59l24 -20q-82 -90 -204 -90zM370 606h-36l-101 144h28l91 -120l88 120h28z" />
    <glyph glyph-name="Ccircumflex.smcp" unicode="&#xf673;" horiz-adv-x="580" 
d="M348 -12q-122 0 -205 81t-83 207q0 125 83 205.5t205 80.5t203 -90l-23 -20q-30 39 -78 60t-102 21q-108 0 -181 -72t-73 -185q0 -112 73 -185.5t181 -73.5q54 0 103 22t77 59l24 -20q-82 -90 -204 -90zM468 606h-28l-91 120l-88 -120h-28l98 144h36z" />
    <glyph glyph-name="Cdotaccent.smcp" unicode="&#xf674;" horiz-adv-x="580" 
d="M348 -12q-122 0 -205 81t-83 207q0 125 83 205.5t205 80.5t203 -90l-23 -20q-30 39 -78 60t-102 21q-108 0 -181 -72t-73 -185q0 -112 73 -185.5t181 -73.5q54 0 103 22t77 59l24 -20q-82 -90 -204 -90zM351 641q-11 0 -20 8.5t-9 20.5t9 20.5t20 8.5q12 0 20.5 -8.5
t8.5 -20.5t-8.5 -20.5t-20.5 -8.5z" />
    <glyph glyph-name="Dcaron.smcp" unicode="&#xf675;" horiz-adv-x="606" 
d="M243 0h-172v550h172q130 0 209 -80.5t79 -195.5t-79 -194.5t-209 -79.5zM243 29q117 0 185 69.5t68 175.5t-68 176.5t-185 70.5h-140v-492h140zM307 606h-36l-101 144h28l91 -120l88 120h28z" />
    <glyph glyph-name="Dcroat.smcp" unicode="&#xf676;" horiz-adv-x="618" 
d="M255 0h-172v268h-71v27h71v255h172q130 0 209 -80.5t79 -195.5t-79 -194.5t-209 -79.5zM266 268h-151v-239h140q117 0 185 69.5t68 175.5t-68 176.5t-185 70.5h-140v-226h151v-27z" />
    <glyph glyph-name="Ebreve.smcp" unicode="&#xf677;" horiz-adv-x="500" 
d="M440 0h-354v550h354v-29h-322v-223h317v-29h-317v-240h322v-29zM436 697q-65 -88 -175 -88q-109 0 -176 88l21 19q57 -80 155 -80t155 80z" />
    <glyph glyph-name="Ecaron.smcp" unicode="&#xf678;" horiz-adv-x="500" 
d="M440 0h-354v550h354v-29h-322v-223h317v-29h-317v-240h322v-29zM284 606h-36l-101 144h28l91 -120l88 120h28z" />
    <glyph glyph-name="Edotaccent.smcp" unicode="&#xf679;" horiz-adv-x="500" 
d="M440 0h-354v550h354v-29h-322v-223h317v-29h-317v-240h322v-29zM268 641q-11 0 -20 8.5t-9 20.5t9 20.5t20 8.5q12 0 20.5 -8.5t8.5 -20.5t-8.5 -20.5t-20.5 -8.5z" />
    <glyph glyph-name="Emacron.smcp" unicode="&#xf67a;" horiz-adv-x="500" 
d="M440 0h-354v550h354v-29h-322v-223h317v-29h-317v-240h322v-29zM441 631h-363v27h363v-27z" />
    <glyph glyph-name="Eng.smcp" unicode="&#xf67b;" horiz-adv-x="618" 
d="M364 -196q-92 0 -146 75l24 21q49 -67 122 -67q62 0 99 37t37 97v35l-382 498v-500h-32v550h30l384 -495v495h32v-583q0 -79 -48 -121t-120 -42z" />
    <glyph glyph-name="Eogonek.smcp" unicode="&#xf67c;" horiz-adv-x="500" 
d="M468 -112l25 -11q-22 -63 -83 -63q-35 0 -58 21t-23 63q0 59 60 102h-303v550h354v-29h-322v-223h317v-29h-317v-240h322v-29q-82 -39 -82 -102q0 -57 52 -57q43 0 58 47z" />
    <glyph glyph-name="Gbreve.smcp" unicode="&#xf67d;" horiz-adv-x="634" 
d="M348 -12q-122 0 -205 81t-83 206t83 206t205 81q124 0 213 -87l-21 -23q-76 81 -192 81q-108 0 -181 -72.5t-73 -185.5q0 -112 73 -185.5t181 -73.5q105 0 180 73v149h-203v29h235v-190q-84 -89 -212 -89zM524 697q-65 -88 -175 -88q-109 0 -176 88l21 19q57 -80 155 -80
t155 80z" />
    <glyph glyph-name="Gcircumflex.smcp" unicode="&#xf67e;" horiz-adv-x="634" 
d="M348 -12q-122 0 -205 81t-83 206t83 206t205 81q124 0 213 -87l-21 -23q-76 81 -192 81q-108 0 -181 -72.5t-73 -185.5q0 -112 73 -185.5t181 -73.5q105 0 180 73v149h-203v29h235v-190q-84 -89 -212 -89zM466 606h-28l-91 120l-88 -120h-28l98 144h36z" />
    <glyph glyph-name="Gcommaaccent.smcp" unicode="&#xf67f;" horiz-adv-x="634" 
d="M348 -12q-122 0 -205 81t-83 206t83 206t205 81q124 0 213 -87l-21 -23q-76 81 -192 81q-108 0 -181 -72.5t-73 -185.5q0 -112 73 -185.5t181 -73.5q105 0 180 73v149h-203v29h235v-190q-84 -89 -212 -89zM390 -137q0 -36 -18 -69.5t-44 -51.5l-22 18q24 18 38.5 43.5
t14.5 48.5q-6 -1 -8 -1q-14 0 -23 9.5t-9 23.5q0 13 9 22.5t23 9.5q16 0 27.5 -14t11.5 -39z" />
    <glyph glyph-name="Gdotaccent.smcp" unicode="&#xf680;" horiz-adv-x="634" 
d="M348 -12q-122 0 -205 81t-83 206t83 206t205 81q124 0 213 -87l-21 -23q-76 81 -192 81q-108 0 -181 -72.5t-73 -185.5q0 -112 73 -185.5t181 -73.5q105 0 180 73v149h-203v29h235v-190q-84 -89 -212 -89zM351 641q-11 0 -20 8.5t-9 20.5t9 20.5t20 8.5q12 0 20.5 -8.5
t8.5 -20.5t-8.5 -20.5t-20.5 -8.5z" />
    <glyph glyph-name="Hcircumflex.smcp" unicode="&#xf681;" horiz-adv-x="622" 
d="M536 0h-31v269h-387v-269h-32v550h32v-252h387v252h31v-550zM426 606h-28l-91 120l-88 -120h-28l98 144h36z" />
    <glyph glyph-name="Hbar.smcp" unicode="&#xf682;" horiz-adv-x="645" 
d="M548 0h-31v269h-387v-269h-32v411h-86v27h86v112h32v-112h387v112h31v-112h85v-27h-85v-411zM130 298h387v113h-387v-113z" />
    <glyph glyph-name="Ibreve.smcp" unicode="&#xf683;" horiz-adv-x="204" 
d="M118 0h-32v550h32v-550zM273 697q-65 -88 -175 -88q-109 0 -176 88l21 19q57 -80 155 -80t155 80z" />
    <glyph glyph-name="IJ.smcp" unicode="&#xf684;" horiz-adv-x="616" 
d="M118 0h-32v550h32v-550zM362 -12q-92 0 -146 75l24 21q49 -67 122 -67q62 0 99 37t37 97v399h32v-399q0 -79 -48 -121t-120 -42z" />
    <glyph glyph-name="Imacron.smcp" unicode="&#xf685;" horiz-adv-x="204" 
d="M118 0h-32v550h32v-550zM285 631h-363v27h363v-27z" />
    <glyph glyph-name="Iogonek.smcp" unicode="&#xf686;" horiz-adv-x="204" 
d="M146 -112l25 -11q-22 -63 -83 -63q-35 0 -58 21t-23 63q0 33 22 63.5t57 50.5v538h32v-550q-82 -39 -82 -102q0 -57 52 -57q43 0 58 47z" />
    <glyph glyph-name="Itilde.smcp" unicode="&#xf687;" horiz-adv-x="204" 
d="M118 0h-32v550h32v-550zM165 594q-26 0 -44.5 17.5t-27 39t-23 39t-33.5 17.5q-26 0 -42.5 -26.5t-16.5 -80.5h-26q0 57 23.5 95.5t64.5 38.5q26 0 44.5 -17.5t27 -39t23 -39t33.5 -17.5q26 0 42.5 26.5t16.5 80.5h26q0 -57 -23.5 -95.5t-64.5 -38.5z" />
    <glyph glyph-name="Jcircumflex.smcp" unicode="&#xf688;" horiz-adv-x="412" 
d="M158 -12q-92 0 -146 75l24 21q49 -67 122 -67q62 0 99 37t37 97v399h32v-399q0 -79 -48 -121t-120 -42zM427 606h-28l-91 120l-88 -120h-28l98 144h36z" />
    <glyph glyph-name="Kcommaaccent.smcp" unicode="&#xf689;" horiz-adv-x="507" 
d="M482 0h-43l-255 268l-66 -70v-198h-32v550h32v-312l295 312h43l-252 -263zM297 -137q0 -36 -18 -69.5t-44 -51.5l-22 18q24 18 38.5 43.5t14.5 48.5q-6 -1 -8 -1q-14 0 -23 9.5t-9 23.5q0 13 9 22.5t23 9.5q16 0 27.5 -14t11.5 -39z" />
    <glyph glyph-name="Lacute.smcp" unicode="&#xf68a;" horiz-adv-x="449" 
d="M406 0h-320v550h32v-521h288v-29zM403 750l-175 -144h-30l160 144h45z" />
    <glyph glyph-name="Lcaron.smcp" unicode="&#xf68b;" horiz-adv-x="449" 
d="M406 0h-320v550h32v-521h288v-29zM285 507q0 -36 -18 -69.5t-44 -51.5l-22 18q24 18 38.5 43.5t14.5 48.5q-6 -1 -8 -1q-14 0 -23 9.5t-9 23.5q0 13 9 22.5t23 9.5q16 0 27.5 -14t11.5 -39z" />
    <glyph glyph-name="Lcommaaccent.smcp" unicode="&#xf68c;" horiz-adv-x="449" 
d="M406 0h-320v550h32v-521h288v-29zM283 -137q0 -36 -18 -69.5t-44 -51.5l-22 18q24 18 38.5 43.5t14.5 48.5q-6 -1 -8 -1q-14 0 -23 9.5t-9 23.5q0 13 9 22.5t23 9.5q16 0 27.5 -14t11.5 -39z" />
    <glyph glyph-name="Ldot.smcp" unicode="&#xf68d;" horiz-adv-x="449" 
d="M406 0h-320v550h32v-521h288v-29zM364 285q0 -13 -10 -23t-23 -10t-23 10t-10 23t10 22.5t23 9.5t23 -9.5t10 -22.5z" />
    <glyph glyph-name="Nacute.smcp" unicode="&#xf68e;" horiz-adv-x="618" 
d="M532 0h-30l-384 500v-500h-32v550h30l384 -495v495h32v-550zM460 750l-175 -144h-30l160 144h45z" />
    <glyph glyph-name="Ncaron.smcp" unicode="&#xf68f;" horiz-adv-x="618" 
d="M532 0h-30l-384 500v-500h-32v550h30l384 -495v495h32v-550zM329 606h-36l-101 144h28l91 -120l88 120h28z" />
    <glyph glyph-name="Ncommaaccent.smcp" unicode="&#xf690;" horiz-adv-x="618" 
d="M532 0h-30l-384 500v-500h-32v550h30l384 -495v495h32v-550zM343 -137q0 -36 -18 -69.5t-44 -51.5l-22 18q24 18 38.5 43.5t14.5 48.5q-6 -1 -8 -1q-14 0 -23 9.5t-9 23.5q0 13 9 22.5t23 9.5q16 0 27.5 -14t11.5 -39z" />
    <glyph glyph-name="Obreve.smcp" unicode="&#xf691;" horiz-adv-x="669" 
d="M335 -12q-124 0 -199.5 82.5t-75.5 204.5t75.5 204.5t199.5 82.5q123 0 198.5 -82.5t75.5 -204.5t-75.5 -204.5t-198.5 -82.5zM335 17q107 0 173.5 73t66.5 185q0 113 -66 185.5t-174 72.5q-109 0 -175 -72.5t-66 -185.5q0 -112 66 -185t175 -73zM512 697
q-65 -88 -175 -88q-109 0 -176 88l21 19q57 -80 155 -80t155 80z" />
    <glyph glyph-name="Ohungarumlaut.smcp" unicode="&#xf692;" horiz-adv-x="669" 
d="M335 -12q-124 0 -199.5 82.5t-75.5 204.5t75.5 204.5t199.5 82.5q123 0 198.5 -82.5t75.5 -204.5t-75.5 -204.5t-198.5 -82.5zM335 17q107 0 173.5 73t66.5 185q0 113 -66 185.5t-174 72.5q-109 0 -175 -72.5t-66 -185.5q0 -112 66 -185t175 -73zM380 750l-115 -144h-26
l100 144h41zM516 750l-115 -144h-26l100 144h41z" />
    <glyph glyph-name="Omacron.smcp" unicode="&#xf693;" horiz-adv-x="669" 
d="M335 -12q-124 0 -199.5 82.5t-75.5 204.5t75.5 204.5t199.5 82.5q123 0 198.5 -82.5t75.5 -204.5t-75.5 -204.5t-198.5 -82.5zM335 17q107 0 173.5 73t66.5 185q0 113 -66 185.5t-174 72.5q-109 0 -175 -72.5t-66 -185.5q0 -112 66 -185t175 -73zM516 641h-363v27h363
v-27z" />
    <glyph glyph-name="Oslashacute.smcp" unicode="&#xf694;" horiz-adv-x="669" 
d="M335 -12q-88 0 -154 44l-22 -32h-36l34 49q-97 83 -97 226q0 122 75.5 204.5t199.5 82.5q85 0 149 -42l21 30h36l-33 -47q101 -84 101 -228q0 -122 -75.5 -204.5t-198.5 -82.5zM335 17q107 0 173.5 73t66.5 185q0 130 -84 203l-293 -421q57 -40 137 -40zM94 275
q0 -128 81 -200l292 421q-56 37 -132 37q-109 0 -175 -72.5t-66 -185.5zM489 750l-175 -144h-30l160 144h45z" />
    <glyph glyph-name="Racute.smcp" unicode="&#xf695;" horiz-adv-x="521" 
d="M467 0h-42l-173 235h-134v-235h-32v550h200q80 0 125.5 -43.5t45.5 -113.5t-44.5 -113.5t-122.5 -44.5zM286 264q67 0 102 35.5t35 93.5t-36 93t-101 35h-168v-257h168zM405 750l-175 -144h-30l160 144h45z" />
    <glyph glyph-name="Rcaron.smcp" unicode="&#xf696;" horiz-adv-x="521" 
d="M467 0h-42l-173 235h-134v-235h-32v550h200q80 0 125.5 -43.5t45.5 -113.5t-44.5 -113.5t-122.5 -44.5zM286 264q67 0 102 35.5t35 93.5t-36 93t-101 35h-168v-257h168zM272 606h-36l-101 144h28l91 -120l88 120h28z" />
    <glyph glyph-name="Rcommaaccent.smcp" unicode="&#xf697;" horiz-adv-x="521" 
d="M467 0h-42l-173 235h-134v-235h-32v550h200q80 0 125.5 -43.5t45.5 -113.5t-44.5 -113.5t-122.5 -44.5zM286 264q67 0 102 35.5t35 93.5t-36 93t-101 35h-168v-257h168zM298 -137q0 -36 -18 -69.5t-44 -51.5l-22 18q24 18 38.5 43.5t14.5 48.5q-6 -1 -8 -1q-14 0 -23 9.5
t-9 23.5q0 13 9 22.5t23 9.5q16 0 27.5 -14t11.5 -39z" />
    <glyph glyph-name="Sacute.smcp" unicode="&#xf698;" horiz-adv-x="494" 
d="M248 -12q-131 0 -203 89l26 21q69 -81 177 -81q84 0 124.5 36t40.5 89q0 50 -36 79t-87.5 42t-103.5 26.5t-88 44.5t-36 84q0 65 53 104.5t128 39.5q120 0 189 -79l-23 -21q-57 71 -166 71q-62 0 -104.5 -33t-42.5 -82q0 -42 36 -67t87.5 -37.5t103.5 -28t88 -51
t36 -92.5q0 -66 -49.5 -110t-149.5 -44zM400 750l-175 -144h-30l160 144h45z" />
    <glyph glyph-name="Scedilla.smcp" unicode="&#xf699;" horiz-adv-x="494" 
d="M245 -187q-58 0 -93 28l14 27q32 -28 79 -28q29 0 49 13.5t20 35.5q0 43 -44 43q-27 0 -43 -19l-22 13l23 63q-117 7 -183 88l26 21q69 -81 177 -81q84 0 124.5 36t40.5 89q0 50 -36 79t-87.5 42t-103.5 26.5t-88 44.5t-36 84q0 65 53 104.5t128 39.5q120 0 189 -79
l-23 -21q-57 71 -166 71q-62 0 -104.5 -33t-42.5 -82q0 -42 36 -67t87.5 -37.5t103.5 -28t88 -51t36 -92.5q0 -65 -47.5 -108.5t-142.5 -45.5l-17 -46q15 12 38 12q29 0 47 -17.5t18 -47.5q0 -33 -28 -54.5t-70 -21.5z" />
    <glyph glyph-name="Scircumflex.smcp" unicode="&#xf69a;" horiz-adv-x="494" 
d="M248 -12q-131 0 -203 89l26 21q69 -81 177 -81q84 0 124.5 36t40.5 89q0 50 -36 79t-87.5 42t-103.5 26.5t-88 44.5t-36 84q0 65 53 104.5t128 39.5q120 0 189 -79l-23 -21q-57 71 -166 71q-62 0 -104.5 -33t-42.5 -82q0 -42 36 -67t87.5 -37.5t103.5 -28t88 -51
t36 -92.5q0 -66 -49.5 -110t-149.5 -44zM365 606h-28l-91 120l-88 -120h-28l98 144h36z" />
    <glyph glyph-name="Scommaaccent.smcp" unicode="&#xf69b;" horiz-adv-x="494" 
d="M248 -12q-131 0 -203 89l26 21q69 -81 177 -81q84 0 124.5 36t40.5 89q0 50 -36 79t-87.5 42t-103.5 26.5t-88 44.5t-36 84q0 65 53 104.5t128 39.5q120 0 189 -79l-23 -21q-57 71 -166 71q-62 0 -104.5 -33t-42.5 -82q0 -42 36 -67t87.5 -37.5t103.5 -28t88 -51
t36 -92.5q0 -66 -49.5 -110t-149.5 -44zM290 -137q0 -36 -18 -69.5t-44 -51.5l-22 18q24 18 38.5 43.5t14.5 48.5q-6 -1 -8 -1q-14 0 -23 9.5t-9 23.5q0 13 9 22.5t23 9.5q16 0 27.5 -14t11.5 -39z" />
    <glyph glyph-name="Tbar.smcp" unicode="&#xf69c;" horiz-adv-x="459" 
d="M245 0h-32v271h-128v27h128v223h-182v29h397v-29h-183v-223h130v-27h-130v-271z" />
    <glyph glyph-name="Tcaron.smcp" unicode="&#xf69d;" horiz-adv-x="459" 
d="M245 0h-32v521h-182v29h397v-29h-183v-521zM249 606h-36l-101 144h28l91 -120l88 120h28z" />
    <glyph glyph-name="Tcommaaccent.smcp" unicode="&#xf69e;" horiz-adv-x="459" 
d="M245 0h-32v521h-182v29h397v-29h-183v-521zM268 -137q0 -36 -18 -69.5t-44 -51.5l-22 18q24 18 38.5 43.5t14.5 48.5q-6 -1 -8 -1q-14 0 -23 9.5t-9 23.5q0 13 9 22.5t23 9.5q16 0 27.5 -14t11.5 -39z" />
    <glyph glyph-name="Ubreve.smcp" unicode="&#xf69f;" horiz-adv-x="603" 
d="M301 -12q-104 0 -159.5 58t-55.5 161v343h32v-343q0 -90 47.5 -140t135.5 -50q89 0 136.5 50t47.5 140v343h32v-343q0 -103 -55.5 -161t-160.5 -58zM475 697q-65 -88 -175 -88q-109 0 -176 88l21 19q57 -80 155 -80t155 80z" />
    <glyph glyph-name="Uhungarumlaut.smcp" unicode="&#xf6a0;" horiz-adv-x="603" 
d="M301 -12q-104 0 -159.5 58t-55.5 161v343h32v-343q0 -90 47.5 -140t135.5 -50q89 0 136.5 50t47.5 140v343h32v-343q0 -103 -55.5 -161t-160.5 -58zM344 750l-115 -144h-26l100 144h41zM480 750l-115 -144h-26l100 144h41z" />
    <glyph glyph-name="Umacron.smcp" unicode="&#xf6a1;" horiz-adv-x="603" 
d="M301 -12q-104 0 -159.5 58t-55.5 161v343h32v-343q0 -90 47.5 -140t135.5 -50q89 0 136.5 50t47.5 140v343h32v-343q0 -103 -55.5 -161t-160.5 -58zM485 631h-363v27h363v-27z" />
    <glyph glyph-name="Uogonek.smcp" unicode="&#xf6a2;" horiz-adv-x="603" 
d="M413 -112l25 -11q-22 -63 -83 -63q-35 0 -58 21t-23 63q0 50 46 91q-6 -1 -19 -1q-104 0 -159.5 58t-55.5 161v343h32v-343q0 -90 47.5 -140t135.5 -50q89 0 136.5 50t47.5 140v343h32v-343q0 -80 -34 -133.5t-98 -73.5q-82 -39 -82 -102q0 -57 52 -57q43 0 58 47z" />
    <glyph glyph-name="Uring.smcp" unicode="&#xf6a3;" horiz-adv-x="603" 
d="M301 -12q-104 0 -159.5 58t-55.5 161v343h32v-343q0 -90 47.5 -140t135.5 -50q89 0 136.5 50t47.5 140v343h32v-343q0 -103 -55.5 -161t-160.5 -58zM304 610q-38 0 -65.5 27.5t-27.5 65.5t27.5 65.5t65.5 27.5t65 -27.5t27 -65.5t-27 -65.5t-65 -27.5zM304 634
q28 0 48 20t20 49t-20 49t-48 20t-48.5 -20t-20.5 -49t20.5 -49t48.5 -20z" />
    <glyph glyph-name="Utilde.smcp" unicode="&#xf6a4;" horiz-adv-x="603" 
d="M301 -12q-104 0 -159.5 58t-55.5 161v343h32v-343q0 -90 47.5 -140t135.5 -50q89 0 136.5 50t47.5 140v343h32v-343q0 -103 -55.5 -161t-160.5 -58zM364 604q-26 0 -44.5 17.5t-27 39t-23 39t-33.5 17.5q-26 0 -42.5 -26.5t-16.5 -80.5h-26q0 57 23.5 95.5t64.5 38.5
q26 0 44.5 -17.5t27 -39t23 -39t33.5 -17.5q26 0 42.5 26.5t16.5 80.5h26q0 -57 -23.5 -95.5t-64.5 -38.5z" />
    <glyph glyph-name="Wcircumflex.smcp" unicode="&#xf6a6;" horiz-adv-x="735" 
d="M485 606h-28l-91 120l-88 -120h-28l98 144h36zM550 0h-34l-149 494l-148 -494h-35l-164 550h34l147 -500l150 500h33l149 -501l148 501h34z" />
    <glyph glyph-name="Ycircumflex.smcp" unicode="&#xf6a9;" horiz-adv-x="531" 
d="M284 0h-32v238l-235 312h41l210 -282l206 282h40l-230 -312v-238zM386 606h-28l-91 120l-88 -120h-28l98 144h36z" />
    <glyph glyph-name="Zacute.smcp" unicode="&#xf6ab;" horiz-adv-x="510" 
d="M467 0h-424v27l379 494h-379v29h417v-28l-379 -493h386v-29zM408 750l-175 -144h-30l160 144h45z" />
    <glyph glyph-name="Zdotaccent.smcp" unicode="&#xf6ac;" horiz-adv-x="510" 
d="M467 0h-424v27l379 494h-379v29h417v-28l-379 -493h386v-29zM259 641q-11 0 -20 8.5t-9 20.5t9 20.5t20 8.5q12 0 20.5 -8.5t8.5 -20.5t-8.5 -20.5t-20.5 -8.5z" />
    <glyph glyph-name="Idotaccent.smcp" unicode="&#xf6ad;" horiz-adv-x="174" 
d="M103 0h-32v550h32v-550zM86 641q-11 0 -20 8.5t-9 20.5t9 20.5t20 8.5q12 0 20.5 -8.5t8.5 -20.5t-8.5 -20.5t-20.5 -8.5z" />
    <glyph glyph-name="parenleft.case" unicode="&#xf6ae;" horiz-adv-x="206" 
d="M189 -97l-16 -12q-126 206 -126 442t126 442l16 -11q-54 -114 -80.5 -210t-26.5 -221q0 -124 26.5 -221t80.5 -209z" />
    <glyph glyph-name="parenright.case" unicode="&#xf6af;" horiz-adv-x="206" 
d="M17 -97l16 -12q126 206 126 442t-126 442l-16 -11q54 -114 80.5 -210t26.5 -221q0 -124 -26.5 -221t-80.5 -209z" />
    <glyph glyph-name="bracketleft.case" unicode="&#xf6b0;" horiz-adv-x="212" 
d="M195 -100h-161v868h161v-30h-131v-808h131v-30z" />
    <glyph glyph-name="bracketright.case" unicode="&#xf6b1;" horiz-adv-x="212" 
d="M178 -100h-161v30h131v808h-131v30h161v-868z" />
    <glyph glyph-name="braceleft.case" unicode="&#xf6b2;" horiz-adv-x="237" 
d="M220 -100h-62q-39 0 -69 32t-30 81v234q0 30 -13.5 51t-38.5 21v30q25 0 38.5 21t13.5 51v234q0 49 30 81t69 32h62v-30h-62q-28 0 -48.5 -24t-20.5 -59v-234q0 -68 -45 -87q45 -19 45 -87v-234q0 -35 20.5 -59t48.5 -24h62v-30z" />
    <glyph glyph-name="braceright.case" unicode="&#xf6b3;" horiz-adv-x="237" 
d="M17 -100v30h62q28 0 48.5 24t20.5 59v234q0 68 45 87q-45 19 -45 87v234q0 35 -20.5 59t-48.5 24h-62v30h62q39 0 69 -32t30 -81v-234q0 -30 13.5 -51t38.5 -21v-30q-25 0 -38.5 -21t-13.5 -51v-234q0 -49 -30 -81t-69 -32h-62z" />
    <glyph glyph-name="exclamdown.case" unicode="&#xf6b4;" horiz-adv-x="208" 
d="M83 0l11 506h20l11 -506h-42zM71 643q0 13 9.5 23t23.5 10t23.5 -10t9.5 -23t-10 -22.5t-23 -9.5t-23 9.5t-10 22.5z" />
    <glyph glyph-name="questiondown.case" unicode="&#xf6b5;" horiz-adv-x="467" 
d="M242 496q44 -33 44 -76q0 -37 -21.5 -67t-52.5 -50.5t-62 -42t-52.5 -52t-21.5 -68.5q0 -52 40 -87.5t111 -35.5q68 0 112.5 25t78.5 73l23 -21q-75 -107 -214 -107q-85 0 -135.5 44.5t-50.5 108.5q0 36 16 66.5t40 50t51.5 39.5t51.5 36.5t40 39t16 48.5q0 30 -33 53z
M245 676q13 0 23 -10t10 -23t-10 -22.5t-23 -9.5t-23 9.5t-10 22.5t10 23t23 10z" />
    <glyph glyph-name="guillemotleft.case" unicode="&#xf6b6;" horiz-adv-x="364" 
d="M334 162h-39l-160 180l160 177h39l-160 -177zM229 162h-39l-160 180l160 177h39l-160 -177z" />
    <glyph glyph-name="guillemotright.case" unicode="&#xf6b7;" horiz-adv-x="364" 
d="M229 342l-160 -180h-39l160 180l-160 177h39zM334 342l-160 -180h-39l160 180l-160 177h39z" />
    <glyph glyph-name="guilsinglleft.case" unicode="&#xf6b8;" horiz-adv-x="259" 
d="M229 162h-39l-160 180l160 177h39l-160 -177z" />
    <glyph glyph-name="guilsinglright.case" unicode="&#xf6b9;" horiz-adv-x="259" 
d="M229 342l-160 -180h-39l160 180l-160 177h39z" />
    <glyph glyph-name="hyphen.case" unicode="&#xf6ba;" horiz-adv-x="300" 
d="M270 326h-240v30h240v-30z" />
    <glyph glyph-name="endash.case" unicode="&#xf6bb;" horiz-adv-x="593" 
d="M563 326h-533v30h533v-30z" />
    <glyph glyph-name="emdash.case" unicode="&#xf6bc;" horiz-adv-x="833" 
d="M803 326h-773v30h773v-30z" />
    <glyph glyph-name="periodcentered.case" unicode="&#xf6bd;" horiz-adv-x="208" 
d="M137 343q0 -13 -9.5 -23t-23.5 -10t-23.5 10t-9.5 23t10 22.5t23 9.5t23 -9.5t10 -22.5z" />
    <glyph glyph-name="bullet.case" unicode="&#xf6be;" horiz-adv-x="358" 
d="M278 341q0 -40 -29 -68.5t-69 -28.5t-69 28.5t-29 68.5q0 41 29 69.5t69 28.5t69 -28.5t29 -69.5z" />
    <glyph glyph-name="cent.case" unicode="&#xf6bf;" horiz-adv-x="493" 
d="M262 -9v90q-92 10 -147 81t-55 171t55 170.5t147 80.5v72h30v-70q96 -1 161 -81l-22 -18q-53 70 -139 72v-453q85 0 139 73l22 -19q-65 -80 -161 -81v-88h-30zM93 333q0 -89 45.5 -152.5t123.5 -73.5v450q-79 -10 -124 -72.5t-45 -151.5z" />
    <glyph glyph-name="commaaccent" unicode="&#xf6c3;" horiz-adv-x="208" 
d="M142 -137q0 -36 -18 -69.5t-44 -51.5l-22 18q24 18 38.5 43.5t14.5 48.5q-6 -1 -8 -1q-14 0 -23 9.5t-9 23.5q0 13 9 22.5t23 9.5q16 0 27.5 -14t11.5 -39z" />
    <glyph glyph-name="one.tnum" unicode="&#xf6dc;" horiz-adv-x="577" 
d="M348 0h-32v621l-105 -115l-22 23l129 138h30v-667z" />
    <glyph glyph-name="rupiah" unicode="&#xf6dd;" horiz-adv-x="1081" 
d="M524 0h-41l-203 288h-160v-288h-32v667h230q85 0 141 -50.5t56 -138.5t-56.5 -139t-140.5 -51zM318 318q73 0 117.5 45t44.5 115t-44.5 114.5t-117.5 44.5h-198v-319h198zM809 -12q-53 0 -98.5 25.5t-75.5 69.5v-267h-30v667h30v-81q26 40 73 66.5t101 26.5q98 0 157 -69
t59 -184q0 -114 -59.5 -184t-156.5 -70zM809 15q86 0 134.5 64t48.5 163t-48.5 162.5t-134.5 63.5q-54 0 -102 -28t-72 -68v-259q24 -40 72 -69t102 -29z" />
    <glyph glyph-name="centinferior" unicode="&#xf6df;" horiz-adv-x="303" 
d="M162 -151v54q-58 7 -92.5 49t-34.5 102t34.5 102t92.5 49v43h24v-42q59 -2 100 -52l-20 -15q-31 42 -80 44v-258q48 2 80 44l20 -16q-42 -49 -100 -51v-53h-24zM64 54q0 -50 26.5 -85t71.5 -42v254q-45 -7 -71.5 -42t-26.5 -85z" />
    <glyph glyph-name="centsuperior" unicode="&#xf6e0;" horiz-adv-x="303" 
d="M162 416v54q-58 6 -92.5 48.5t-34.5 102.5t34.5 102t92.5 49v43h24v-42q59 -3 100 -52l-20 -15q-31 42 -80 44v-258q49 2 80 44l20 -16q-40 -48 -100 -51v-53h-24zM64 621q0 -51 26.5 -86t71.5 -42v255q-45 -7 -71.5 -42t-26.5 -85z" />
    <glyph glyph-name="commainferior" unicode="&#xf6e1;" horiz-adv-x="123" 
d="M83 -135q0 -26 -12 -49.5t-28 -34.5q-3 3 -8.5 7t-8.5 7q14 10 24 26t10 29q-2 -1 -3 -1q-9 0 -16.5 7.5t-7.5 16.5t7.5 16.5t17.5 7.5q11 0 18 -9t7 -23z" />
    <glyph glyph-name="commasuperior" unicode="&#xf6e2;" horiz-adv-x="123" 
d="M83 432q0 -26 -12 -49.5t-28 -34.5q-3 3 -8.5 7t-8.5 7q14 10 24 26t10 29q-2 -1 -3 -1q-9 0 -16.5 7.5t-7.5 16.5t7.5 16.5t17.5 7.5q11 0 18 -9t7 -23z" />
    <glyph glyph-name="dollarinferior" unicode="&#xf6e3;" horiz-adv-x="359" 
d="M172 -206v53q-91 4 -141 66l21 20q51 -57 120 -61v177q-25 6 -39 10t-34.5 13t-31 19t-18.5 26.5t-8 37.5q0 47 37.5 75.5t93.5 29.5v55h25v-56q75 -7 119 -58l-19 -18q-37 45 -100 51v-159q62 -15 96.5 -39t34.5 -75q0 -50 -33.5 -80t-97.5 -33v-54h-25zM297 -40
q0 36 -26 53.5t-74 29.5v-170q50 3 75 26.5t25 60.5zM72 156q0 -32 25.5 -47.5t74.5 -27.5v154q-43 -2 -71.5 -24t-28.5 -55z" />
    <glyph glyph-name="dollarsuperior" unicode="&#xf6e4;" horiz-adv-x="359" 
d="M172 361v53q-90 3 -141 66l21 20q49 -57 120 -61v177q-25 6 -39 10t-34.5 13t-31 19t-18.5 26.5t-8 37.5q0 47 37.5 75.5t93.5 29.5v55h25v-56q75 -7 119 -58l-19 -18q-37 45 -100 51v-159q62 -15 96.5 -39t34.5 -75t-33 -80.5t-98 -33.5v-53h-25zM297 527q0 36 -26 53.5
t-74 29.5v-171q50 4 75 27.5t25 60.5zM72 723q0 -32 25.5 -47.5t74.5 -27.5v154q-43 -2 -71.5 -24t-28.5 -55z" />
    <glyph glyph-name="hypheninferior" unicode="&#xf6e5;" horiz-adv-x="184" 
d="M166 41h-148v25h148v-25z" />
    <glyph glyph-name="hyphensuperior" unicode="&#xf6e6;" horiz-adv-x="184" 
d="M166 609h-148v25h148v-25z" />
    <glyph glyph-name="periodinferior" unicode="&#xf6e7;" horiz-adv-x="129" 
d="M89 -127q0 -10 -7 -17t-17 -7t-17.5 7t-7.5 17t7.5 17t17.5 7t17 -7t7 -17z" />
    <glyph glyph-name="periodsuperior" unicode="&#xf6e8;" horiz-adv-x="129" 
d="M89 440q0 -10 -7 -17t-17 -7t-17.5 7t-7.5 17t7.5 17t17.5 7t17 -7t7 -17z" />
    <glyph glyph-name="asuperior" unicode="&#xf6e9;" horiz-adv-x="372" 
d="M303 326h-27v38q-45 -46 -113 -46q-45 0 -79 29t-34 76q0 48 33.5 76t79.5 28q68 0 113 -46v68q0 35 -27 54.5t-63 19.5q-64 0 -103 -50l-18 19q48 56 122 56q52 0 84 -25t32 -74v-223zM172 340q67 0 104 46v73q-37 46 -104 46q-41 0 -67 -23.5t-26 -58.5
q0 -36 25.5 -59.5t67.5 -23.5z" />
    <glyph glyph-name="bsuperior" unicode="&#xf6ea;" horiz-adv-x="407" 
d="M210 342q56 0 88 39.5t32 101.5t-32 101.5t-88 39.5q-35 0 -66 -17.5t-47 -41.5v-165q16 -24 47 -41t66 -17zM97 326h-28v434h28v-173q43 61 116 61q66 0 106 -45t40 -120t-40.5 -120t-105.5 -45q-36 0 -67 17t-49 43v-52z" />
    <glyph glyph-name="dsuperior" unicode="&#xf6eb;" horiz-adv-x="407" 
d="M338 326h-27v52q-19 -26 -50 -43t-67 -17q-65 0 -105.5 45t-40.5 120t40.5 120t105.5 45q73 0 116 -61v173h28v-434zM197 342q35 0 66.5 17t47.5 41v165q-16 25 -47.5 42t-66.5 17q-56 0 -87.5 -39.5t-31.5 -101.5t31.5 -101.5t87.5 -39.5z" />
    <glyph glyph-name="esuperior" unicode="&#xf6ec;" horiz-adv-x="404" 
d="M210 318q-71 0 -116.5 46.5t-45.5 118.5q0 69 45 117t111 48q71 0 111.5 -48t40.5 -118v-8h-278q2 -55 38.5 -94t93.5 -39q66 0 112 46l14 -17q-52 -52 -126 -52zM329 497q-1 49 -34 88.5t-92 39.5q-56 0 -89.5 -39.5t-35.5 -88.5h251z" />
    <glyph glyph-name="isuperior" unicode="&#xf6ed;" horiz-adv-x="142" 
d="M71 696q-9 0 -16 7t-7 16t7 16t16 7t16 -7t7 -16t-7 -16t-16 -7zM85 326h-28v314h28v-314z" />
    <glyph glyph-name="lsuperior" unicode="&#xf6ee;" horiz-adv-x="166" 
d="M97 326h-28v434h28v-434z" />
    <glyph glyph-name="msuperior" unicode="&#xf6ef;" horiz-adv-x="550" 
d="M481 326h-27v220q0 79 -68 79q-26 0 -54 -17t-43 -40v-242h-27v220q0 79 -69 79q-25 0 -52.5 -17t-43.5 -40v-242h-28v314h28v-49q12 19 42 38t62 19q35 0 56.5 -17.5t28.5 -42.5q15 24 45 42t63 18q87 0 87 -102v-220z" />
    <glyph glyph-name="osuperior" unicode="&#xf6f0;" horiz-adv-x="405" 
d="M202 318q-68 0 -111 47.5t-43 117.5q0 71 43 118t111 47q69 0 112 -47t43 -118q0 -70 -43 -117.5t-112 -47.5zM202 344q58 0 92 40.5t34 98.5t-34 98t-92 40q-57 0 -90.5 -40t-33.5 -98t33.5 -98.5t90.5 -40.5z" />
    <glyph glyph-name="rsuperior" unicode="&#xf6f1;" horiz-adv-x="225" 
d="M97 326h-28v314h28v-55q49 61 110 61v-29h-17q-24 0 -53 -18.5t-40 -39.5v-233z" />
    <glyph glyph-name="ssuperior" unicode="&#xf6f2;" horiz-adv-x="325" 
d="M157 318q-76 0 -122 52l18 18q36 -47 104 -47q43 0 67.5 19.5t24.5 50.5q0 25 -21.5 39.5t-52 21t-61 14.5t-52 26.5t-21.5 49.5q0 37 30.5 61.5t83.5 24.5q75 0 114 -48l-16 -18q-31 43 -98 43q-39 0 -62.5 -18.5t-23.5 -45.5q0 -23 21.5 -36t52 -19t61 -13.5t52 -27.5
t21.5 -54q0 -40 -31 -66.5t-89 -26.5z" />
    <glyph glyph-name="tsuperior" unicode="&#xf6f3;" horiz-adv-x="181" 
d="M123 318q-60 0 -60 67v232h-53v23h53v86h28v-86h65v-23h-65v-231q0 -44 34 -44q25 0 37 16q2 -4 13 -20q-22 -20 -52 -20z" />
    <glyph glyph-name="Lslash.smcp" unicode="&#xf6f9;" horiz-adv-x="483" 
d="M12 198v34l108 63v255h32v-237l106 62v-34l-106 -62v-250h288v-29h-320v261z" />
    <glyph glyph-name="OE.smcp" unicode="&#xf6fa;" horiz-adv-x="974" 
d="M914 0h-355v126q-67 -138 -224 -138q-124 0 -199.5 82.5t-75.5 204.5t75.5 204.5t199.5 82.5q156 0 224 -137v125h355v-29h-323v-223h317v-29h-317v-240h323v-29zM559 189v174q-25 86 -86.5 128t-137.5 42q-109 0 -175 -72.5t-66 -185.5q0 -112 66 -185t175 -73
q78 0 138 42.5t86 129.5z" />
    <glyph glyph-name="Scaron.smcp" unicode="&#xf6fd;" horiz-adv-x="494" 
d="M248 -12q-131 0 -203 89l26 21q69 -81 177 -81q84 0 124.5 36t40.5 89q0 50 -36 79t-87.5 42t-103.5 26.5t-88 44.5t-36 84q0 65 53 104.5t128 39.5q120 0 189 -79l-23 -21q-57 71 -166 71q-62 0 -104.5 -33t-42.5 -82q0 -42 36 -67t87.5 -37.5t103.5 -28t88 -51
t36 -92.5q0 -66 -49.5 -110t-149.5 -44zM267 606h-36l-101 144h28l91 -120l88 120h28z" />
    <glyph glyph-name="Zcaron.smcp" unicode="&#xf6ff;" horiz-adv-x="510" 
d="M467 0h-424v27l379 494h-379v29h417v-28l-379 -493h386v-29zM271 606h-36l-101 144h28l91 -120l88 120h28z" />
    <glyph glyph-name="exclam.smcp" unicode="&#xf721;" horiz-adv-x="167" 
d="M104 550l-11 -418h-20l-11 418h42zM116 24q0 -14 -10 -23.5t-23 -9.5t-23 9.5t-10 23.5q0 13 10 22.5t23 9.5t23 -9.5t10 -22.5z" />
    <glyph glyph-name="dollar.onum" unicode="&#xf724;" horiz-adv-x="494" 
d="M233 -74v63q-123 6 -188 88l26 21q63 -74 162 -81v260q-33 8 -52 14t-44.5 17.5t-39.5 25t-24.5 35.5t-10.5 49q0 63 49.5 102t121.5 42v66h30v-67q105 -6 169 -78l-23 -21q-51 63 -146 70v-229q34 -10 54.5 -16.5t48.5 -20t43 -29t26.5 -40t11.5 -55.5q0 -64 -45.5 -107
t-138.5 -47v-62h-30zM413 142q0 29 -11.5 50.5t-35 36t-46 23t-57.5 17.5v-252q76 4 113 39t37 86zM96 418q0 -44 34.5 -66t102.5 -41v221q-58 -3 -97.5 -35t-39.5 -79z" />
    <glyph glyph-name="ampersand.smcp" unicode="&#xf726;" horiz-adv-x="547" 
d="M514 0h-49q-51 44 -86 76q-73 -88 -174 -88q-76 0 -124 41.5t-48 110.5q0 60 34 97.5t95 70.5q-49 69 -49 127q0 55 38.5 91t92.5 36q51 0 83.5 -26.5t32.5 -77.5q0 -24 -10 -45.5t-21 -34.5t-37 -30.5t-39 -24.5t-46 -24q27 -35 82 -90q40 -42 86 -87q41 58 67 141
l31 -11q-34 -92 -75 -151q45 -41 116 -101zM205 16q84 0 151 82q-49 46 -89 88q-63 67 -87 98q-55 -29 -85 -62t-30 -82q0 -54 39 -89t101 -35zM144 435q0 -47 46 -113q39 20 53.5 28t40 26.5t35 37.5t9.5 44q0 37 -23 56.5t-61 19.5q-43 0 -71.5 -28.5t-28.5 -70.5z" />
    <glyph glyph-name="zero.onum" unicode="&#xf730;" horiz-adv-x="605" 
d="M540 275q0 -73 -23 -135.5t-78.5 -107t-135.5 -44.5q-61 0 -108 25t-74.5 67.5t-41.5 91.5t-14 103q0 73 23 136t79 107t136 44t135.5 -44t78.5 -107t23 -136zM505 275q0 67 -18.5 122.5t-66 95t-117.5 39.5t-117.5 -39.5t-66.5 -95t-19 -122.5t19 -122.5t66.5 -95
t117.5 -39.5t117 39.5t66 95t19 122.5z" />
    <glyph glyph-name="one.onum" unicode="&#xf731;" horiz-adv-x="277" 
d="M189 0h-32v504l-105 -115l-22 23l129 138h30v-550z" />
    <glyph glyph-name="two.onum" unicode="&#xf732;" horiz-adv-x="574" 
d="M467 0h-399v29q377 177 377 355q0 64 -48.5 106t-117.5 42q-63 0 -115.5 -25t-78.5 -65l-26 19q31 46 91 73.5t130 27.5q81 0 139 -49t58 -129q0 -98 -94.5 -191t-249.5 -163h334v-30z" />
    <glyph glyph-name="three.onum" unicode="&#xf733;" horiz-adv-x="531" 
d="M252 -129q-75 0 -131.5 32t-84.5 80l28 16q61 -98 188 -98q83 0 132 42.5t49 116.5q0 77 -55 115t-138 38q-46 0 -56 -1v32q10 -1 56 -1q77 0 130 36t53 107q0 66 -49.5 105t-121.5 39q-58 0 -100.5 -22t-81.5 -68l-25 20q79 100 207 100q83 0 143 -46.5t60 -127.5
q0 -72 -45 -110.5t-97 -47.5q31 -3 64 -19.5t60.5 -56t27.5 -92.5q0 -83 -56.5 -136t-156.5 -53z" />
    <glyph glyph-name="four.onum" unicode="&#xf734;" horiz-adv-x="524" 
d="M486 78h-101v-195h-32v195h-315v33l305 439h42v-442h101v-30zM353 108v406l-280 -406h280z" />
    <glyph glyph-name="five.onum" unicode="&#xf735;" horiz-adv-x="574" 
d="M297 -129q-145 0 -216 112l26 19q67 -101 190 -101q77 0 128.5 51.5t51.5 128.5q0 83 -51 132.5t-129 49.5q-95 0 -168 -69l-27 16v340h364v-30h-332v-291q66 64 163 64q89 0 150.5 -56t61.5 -156q0 -94 -62.5 -152t-149.5 -58z" />
    <glyph glyph-name="six.onum" unicode="&#xf736;" horiz-adv-x="577" 
d="M297 -12q-62 0 -108.5 28.5t-72.5 78.5t-38.5 109.5t-12.5 128.5q0 65 12.5 123t39 109t74.5 81.5t112 30.5q112 0 175 -90l-24 -21q-56 81 -151 81q-56 0 -98 -28.5t-64.5 -77t-33 -103t-10.5 -115.5q0 -24 1 -36q25 42 81.5 80.5t121.5 38.5q94 0 152.5 -53.5
t58.5 -156.5q0 -83 -58 -145.5t-157 -62.5zM297 18q87 0 135 55.5t48 122.5q0 88 -49 134t-131 46q-59 0 -113 -36.5t-85 -93.5q4 -40 16 -78t34 -73t59.5 -56t85.5 -21z" />
    <glyph glyph-name="seven.onum" unicode="&#xf737;" horiz-adv-x="489" 
d="M158 -117h-36l293 637h-379v30h417v-22z" />
    <glyph glyph-name="eight.onum" unicode="&#xf738;" horiz-adv-x="561" 
d="M281 -12q-95 0 -155 49.5t-60 127.5q0 68 50.5 114.5t122.5 64.5q-68 16 -115 57.5t-47 104.5q0 82 61 126.5t143 44.5q81 0 142.5 -45t61.5 -126q0 -63 -47 -104.5t-115 -57.5q72 -18 122 -64.5t50 -114.5q0 -77 -60.5 -127t-153.5 -50zM281 359q23 4 45.5 12t54.5 24
t52 45t20 66q0 65 -49.5 103t-122.5 38t-122.5 -38t-49.5 -103q0 -37 20 -66t52.5 -45.5t54.5 -23.5t45 -12zM281 18q74 0 128 40.5t54 106.5q0 40 -22 73t-54.5 51.5t-59.5 28.5t-46 12q-19 -2 -46.5 -12t-60 -28.5t-54.5 -51.5t-22 -73q0 -66 54 -106.5t129 -40.5z" />
    <glyph glyph-name="nine.onum" unicode="&#xf739;" horiz-adv-x="577" 
d="M274 -128q-112 0 -175 90l24 21q56 -81 151 -81q56 0 98 28.5t64.5 77t33 103t10.5 115.5q0 24 -1 36q-25 -42 -81.5 -80.5t-121.5 -38.5q-94 0 -152.5 53.5t-58.5 156.5q0 83 58 145.5t157 62.5q62 0 108.5 -28.5t72.5 -78.5t38.5 -109.5t12.5 -128.5q0 -65 -12.5 -123
t-39 -109t-74.5 -81.5t-112 -30.5zM277 173q59 0 113 36.5t85 93.5q-4 40 -16 78t-34 73t-59.5 56t-85.5 21q-87 0 -135 -55.5t-48 -122.5q0 -88 49 -134t131 -46z" />
    <glyph glyph-name="question.smcp" unicode="&#xf73f;" horiz-adv-x="397" 
d="M366 432q0 -43 -29.5 -77.5t-64.5 -52.5t-64.5 -44t-29.5 -55q0 -25 33 -46l-21 -21q-42 30 -42 67q0 31 19.5 55.5t46.5 42t54.5 35t47 42t19.5 54.5q0 44 -36 72.5t-97 28.5q-103 0 -166 -83l-22 19q66 92 188 92q75 0 119.5 -37.5t44.5 -91.5zM220 24q0 -14 -10 -23.5
t-23 -9.5t-23 9.5t-10 23.5q0 13 10 22.5t23 9.5t23 -9.5t10 -22.5z" />
    <glyph glyph-name="A.smcp" unicode="&#xf761;" horiz-adv-x="551" 
d="M258 550h35l241 -550h-36l-64 146h-317l-63 -146h-37zM422 175l-146 337l-147 -337h293z" />
    <glyph glyph-name="B.smcp" unicode="&#xf762;" horiz-adv-x="527" 
d="M307 0h-221v550h218q71 0 114.5 -37t43.5 -104q0 -47 -27.5 -81t-66.5 -44q44 -11 75 -50.5t31 -84.5q0 -70 -45 -109.5t-122 -39.5zM307 29q62 0 97 32t35 87q0 50 -34.5 85.5t-97.5 35.5h-189v-240h189zM304 298q59 0 91.5 31t32.5 80q0 51 -32.5 81.5t-91.5 30.5h-186
v-223h186z" />
    <glyph glyph-name="C.smcp" unicode="&#xf763;" horiz-adv-x="580" 
d="M348 -12q-122 0 -205 81t-83 207q0 125 83 205.5t205 80.5t203 -90l-23 -20q-30 39 -78 60t-102 21q-108 0 -181 -72t-73 -185q0 -112 73 -185.5t181 -73.5q54 0 103 22t77 59l24 -20q-82 -90 -204 -90z" />
    <glyph glyph-name="D.smcp" unicode="&#xf764;" horiz-adv-x="606" 
d="M258 0h-172v550h172q130 0 209 -80.5t79 -195.5t-79 -194.5t-209 -79.5zM258 29q117 0 185 69.5t68 175.5t-68 176.5t-185 70.5h-140v-492h140z" />
    <glyph glyph-name="E.smcp" unicode="&#xf765;" horiz-adv-x="500" 
d="M440 0h-354v550h354v-29h-322v-223h317v-29h-317v-240h322v-29z" />
    <glyph glyph-name="F.smcp" unicode="&#xf766;" horiz-adv-x="476" 
d="M118 0h-32v550h354v-29h-322v-223h317v-29h-317v-269z" />
    <glyph glyph-name="G.smcp" unicode="&#xf767;" horiz-adv-x="634" 
d="M348 -12q-122 0 -205 81t-83 206t83 206t205 81q124 0 213 -87l-21 -23q-76 81 -192 81q-108 0 -181 -72.5t-73 -185.5q0 -112 73 -185.5t181 -73.5q105 0 180 73v149h-203v29h235v-190q-84 -89 -212 -89z" />
    <glyph glyph-name="H.smcp" unicode="&#xf768;" horiz-adv-x="622" 
d="M536 0h-31v269h-387v-269h-32v550h32v-252h387v252h31v-550z" />
    <glyph glyph-name="I.smcp" unicode="&#xf769;" horiz-adv-x="204" 
d="M118 0h-32v550h32v-550z" />
    <glyph glyph-name="J.smcp" unicode="&#xf76a;" horiz-adv-x="412" 
d="M158 -12q-92 0 -146 75l24 21q49 -67 122 -67q62 0 99 37t37 97v399h32v-399q0 -79 -48 -121t-120 -42z" />
    <glyph glyph-name="K.smcp" unicode="&#xf76b;" horiz-adv-x="507" 
d="M482 0h-43l-255 268l-66 -70v-198h-32v550h32v-312l295 312h43l-252 -263z" />
    <glyph glyph-name="L.smcp" unicode="&#xf76c;" horiz-adv-x="449" 
d="M406 0h-320v550h32v-521h288v-29z" />
    <glyph glyph-name="M.smcp" unicode="&#xf76d;" horiz-adv-x="687" 
d="M601 0h-32v506l-220 -506h-11l-220 506v-506h-32v550h47l210 -485l210 485h48v-550z" />
    <glyph glyph-name="N.smcp" unicode="&#xf76e;" horiz-adv-x="618" 
d="M532 0h-30l-384 500v-500h-32v550h30l384 -495v495h32v-550z" />
    <glyph glyph-name="O.smcp" unicode="&#xf76f;" horiz-adv-x="669" 
d="M335 -12q-124 0 -199.5 82.5t-75.5 204.5t75.5 204.5t199.5 82.5q123 0 198.5 -82.5t75.5 -204.5t-75.5 -204.5t-198.5 -82.5zM335 17q107 0 173.5 73t66.5 185q0 113 -66 185.5t-174 72.5q-109 0 -175 -72.5t-66 -185.5q0 -112 66 -185t175 -73z" />
    <glyph glyph-name="P.smcp" unicode="&#xf770;" horiz-adv-x="496" 
d="M118 0h-32v550h200q82 0 126 -45t44 -112q0 -68 -44 -113t-126 -45h-168v-235zM286 264q67 0 101.5 35.5t34.5 93.5q0 57 -35 92.5t-101 35.5h-168v-257h168z" />
    <glyph glyph-name="Q.smcp" unicode="&#xf771;" horiz-adv-x="669" 
d="M335 -12q-124 0 -199.5 82.5t-75.5 204.5t75.5 204.5t199.5 82.5q123 0 198.5 -82.5t75.5 -204.5q0 -132 -85 -214l60 -64l-22 -22l-63 65q-69 -52 -164 -52zM335 17q82 0 143 45l-92 97l23 23l93 -99q73 75 73 192q0 113 -66 185.5t-174 72.5q-109 0 -175 -72.5
t-66 -185.5q0 -112 66 -185t175 -73z" />
    <glyph glyph-name="R.smcp" unicode="&#xf772;" horiz-adv-x="521" 
d="M467 0h-42l-173 235h-134v-235h-32v550h200q80 0 125.5 -43.5t45.5 -113.5t-44.5 -113.5t-122.5 -44.5zM286 264q67 0 102 35.5t35 93.5t-36 93t-101 35h-168v-257h168z" />
    <glyph glyph-name="S.smcp" unicode="&#xf773;" horiz-adv-x="494" 
d="M248 -12q-131 0 -203 89l26 21q69 -81 177 -81q84 0 124.5 36t40.5 89q0 50 -36 79t-87.5 42t-103.5 26.5t-88 44.5t-36 84q0 65 53 104.5t128 39.5q120 0 189 -79l-23 -21q-57 71 -166 71q-62 0 -104.5 -33t-42.5 -82q0 -42 36 -67t87.5 -37.5t103.5 -28t88 -51
t36 -92.5q0 -66 -49.5 -110t-149.5 -44z" />
    <glyph glyph-name="T.smcp" unicode="&#xf774;" horiz-adv-x="459" 
d="M245 0h-32v521h-182v29h397v-29h-183v-521z" />
    <glyph glyph-name="U.smcp" unicode="&#xf775;" horiz-adv-x="603" 
d="M301 -12q-104 0 -159.5 58t-55.5 161v343h32v-343q0 -90 47.5 -140t135.5 -50q89 0 136.5 50t47.5 140v343h32v-343q0 -103 -55.5 -161t-160.5 -58z" />
    <glyph glyph-name="V.smcp" unicode="&#xf776;" horiz-adv-x="551" 
d="M293 0h-35l-241 550h37l222 -512l223 512h35z" />
    <glyph glyph-name="W.smcp" unicode="&#xf777;" horiz-adv-x="735" 
d="M550 0h-34l-149 494l-148 -494h-35l-164 550h34l147 -500l150 500h33l149 -501l148 501h34z" />
    <glyph glyph-name="X.smcp" unicode="&#xf778;" horiz-adv-x="553" 
d="M533 0h-41l-216 259l-215 -259h-41l238 282l-226 268h42l202 -244l203 244h41l-225 -267z" />
    <glyph glyph-name="Y.smcp" unicode="&#xf779;" horiz-adv-x="531" 
d="M284 0h-32v238l-235 312h41l210 -282l206 282h40l-230 -312v-238z" />
    <glyph glyph-name="Z.smcp" unicode="&#xf77a;" horiz-adv-x="510" 
d="M467 0h-424v27l379 494h-379v29h417v-28l-379 -493h386v-29z" />
    <glyph glyph-name="exclamdown.smcp" unicode="&#xf7a1;" horiz-adv-x="167" 
d="M63 0l11 418h20l11 -418h-42zM51 526q0 14 9.5 23.5t23.5 9.5t23.5 -9.5t9.5 -23.5q0 -13 -10 -22.5t-23 -9.5t-23 9.5t-10 22.5z" />
    <glyph glyph-name="questiondown.smcp" unicode="&#xf7b8;" horiz-adv-x="397" 
d="M31 118q0 43 29.5 77.5t64.5 52.5t64.5 44t29.5 55q0 25 -33 46l21 21q42 -30 42 -67q0 -31 -19.5 -55.5t-46.5 -42t-54.5 -35t-47 -42t-19.5 -54.5q0 -44 36 -72.5t97 -28.5q103 0 166 83l22 -19q-66 -92 -188 -92q-75 0 -119.5 37.5t-44.5 91.5zM177 526q0 14 9.5 23.5
t23.5 9.5t23.5 -9.5t9.5 -23.5q0 -13 -10 -22.5t-23 -9.5t-23 9.5t-10 22.5z" />
    <glyph glyph-name="Agrave.smcp" unicode="&#xf7e0;" horiz-adv-x="551" 
d="M258 550h35l241 -550h-36l-64 146h-317l-63 -146h-37zM422 175l-146 337l-147 -337h293zM329 606h-30l-175 144h45z" />
    <glyph glyph-name="Aacute.smcp" unicode="&#xf7e1;" horiz-adv-x="551" 
d="M258 550h35l241 -550h-36l-64 146h-317l-63 -146h-37zM422 175l-146 337l-147 -337h293zM430 750l-175 -144h-30l160 144h45z" />
    <glyph glyph-name="Acircumflex.smcp" unicode="&#xf7e2;" horiz-adv-x="551" 
d="M258 550h35l241 -550h-36l-64 146h-317l-63 -146h-37zM422 175l-146 337l-147 -337h293zM395 606h-28l-91 120l-88 -120h-28l98 144h36z" />
    <glyph glyph-name="Atilde.smcp" unicode="&#xf7e3;" horiz-adv-x="551" 
d="M258 550h35l241 -550h-36l-64 146h-317l-63 -146h-37zM422 175l-146 337l-147 -337h293zM339 604q-26 0 -44.5 17.5t-27 39t-23 39t-33.5 17.5q-26 0 -42.5 -26.5t-16.5 -80.5h-26q0 57 23.5 95.5t64.5 38.5q26 0 44.5 -17.5t27 -39t23 -39t33.5 -17.5q26 0 42.5 26.5
t16.5 80.5h26q0 -57 -23.5 -95.5t-64.5 -38.5z" />
    <glyph glyph-name="Adieresis.smcp" unicode="&#xf7e4;" horiz-adv-x="551" 
d="M258 550h35l241 -550h-36l-64 146h-317l-63 -146h-37zM422 175l-146 337l-147 -337h293zM405 648q0 -11 -8.5 -19.5t-19.5 -8.5t-19.5 8.5t-8.5 19.5t8.5 19.5t19.5 8.5t19.5 -8.5t8.5 -19.5zM203 648q0 -11 -8.5 -19.5t-19.5 -8.5t-19.5 8.5t-8.5 19.5t8.5 19.5
t19.5 8.5t19.5 -8.5t8.5 -19.5z" />
    <glyph glyph-name="Aring.smcp" unicode="&#xf7e5;" horiz-adv-x="551" 
d="M258 550h35l241 -550h-36l-64 146h-317l-63 -146h-37zM422 175l-146 337l-147 -337h293zM277 610q-38 0 -65.5 27.5t-27.5 65.5t27.5 65.5t65.5 27.5t65 -27.5t27 -65.5t-27 -65.5t-65 -27.5zM277 634q28 0 48 20t20 49t-20 49t-48 20q-29 0 -49 -20t-20 -49t20 -49
t49 -20z" />
    <glyph glyph-name="AE.smcp" unicode="&#xf7e6;" horiz-adv-x="801" 
d="M741 0h-355v146h-238l-94 -146h-37l359 550h365v-29h-323v-223h317v-29h-317v-240h323v-29zM386 175v337l-220 -337h220z" />
    <glyph glyph-name="Ccedilla.smcp" unicode="&#xf7e7;" horiz-adv-x="580" 
d="M349 -187q-58 0 -93 28l14 27q32 -28 79 -28q29 0 49 13.5t20 35.5q0 43 -44 43q-27 0 -43 -19l-22 13l22 63q-117 6 -194 86t-77 201q0 125 83 205.5t205 80.5t203 -90l-23 -20q-30 39 -78 60t-102 21q-108 0 -181 -72t-73 -185q0 -112 73 -185.5t181 -73.5q54 0 103 22
t77 59l24 -20q-78 -86 -191 -90l-17 -46q15 12 38 12q29 0 47 -17.5t18 -47.5q0 -33 -28 -54.5t-70 -21.5z" />
    <glyph glyph-name="Egrave.smcp" unicode="&#xf7e8;" horiz-adv-x="500" 
d="M440 0h-354v550h354v-29h-322v-223h317v-29h-317v-240h322v-29zM320 606h-30l-175 144h45z" />
    <glyph glyph-name="Eacute.smcp" unicode="&#xf7e9;" horiz-adv-x="500" 
d="M440 0h-354v550h354v-29h-322v-223h317v-29h-317v-240h322v-29zM420 750l-175 -144h-30l160 144h45z" />
    <glyph glyph-name="Ecircumflex.smcp" unicode="&#xf7ea;" horiz-adv-x="500" 
d="M440 0h-354v550h354v-29h-322v-223h317v-29h-317v-240h322v-29zM385 606h-28l-91 120l-88 -120h-28l98 144h36z" />
    <glyph glyph-name="Edieresis.smcp" unicode="&#xf7eb;" horiz-adv-x="500" 
d="M440 0h-354v550h354v-29h-322v-223h317v-29h-317v-240h322v-29zM391 648q0 -11 -8.5 -19.5t-19.5 -8.5t-19.5 8.5t-8.5 19.5t8.5 19.5t19.5 8.5t19.5 -8.5t8.5 -19.5zM189 648q0 -11 -8.5 -19.5t-19.5 -8.5t-19.5 8.5t-8.5 19.5t8.5 19.5t19.5 8.5t19.5 -8.5t8.5 -19.5z
" />
    <glyph glyph-name="Igrave.smcp" unicode="&#xf7ec;" horiz-adv-x="204" 
d="M118 0h-32v550h32v-550zM155 606h-30l-175 144h45z" />
    <glyph glyph-name="Iacute.smcp" unicode="&#xf7ed;" horiz-adv-x="204" 
d="M118 0h-32v550h32v-550zM256 750l-175 -144h-30l160 144h45z" />
    <glyph glyph-name="Icircumflex.smcp" unicode="&#xf7ee;" horiz-adv-x="204" 
d="M118 0h-32v550h32v-550zM221 606h-28l-91 120l-88 -120h-28l98 144h36z" />
    <glyph glyph-name="Idieresis.smcp" unicode="&#xf7ef;" horiz-adv-x="204" 
d="M118 0h-32v550h32v-550zM232 648q0 -11 -8.5 -19.5t-19.5 -8.5t-19.5 8.5t-8.5 19.5t8.5 19.5t19.5 8.5t19.5 -8.5t8.5 -19.5zM30 648q0 -11 -8.5 -19.5t-19.5 -8.5t-19.5 8.5t-8.5 19.5t8.5 19.5t19.5 8.5t19.5 -8.5t8.5 -19.5z" />
    <glyph glyph-name="Eth.smcp" unicode="&#xf7f0;" horiz-adv-x="618" 
d="M255 0h-172v268h-71v27h71v255h172q130 0 209 -80.5t79 -195.5t-79 -194.5t-209 -79.5zM266 268h-151v-239h140q117 0 185 69.5t68 175.5t-68 176.5t-185 70.5h-140v-226h151v-27z" />
    <glyph glyph-name="Ntilde.smcp" unicode="&#xf7f1;" horiz-adv-x="618" 
d="M532 0h-30l-384 500v-500h-32v550h30l384 -495v495h32v-550zM370 604q-26 0 -44.5 17.5t-27 39t-23 39t-33.5 17.5q-26 0 -42.5 -26.5t-16.5 -80.5h-26q0 57 23.5 95.5t64.5 38.5q26 0 44.5 -17.5t27 -39t23 -39t33.5 -17.5q26 0 42.5 26.5t16.5 80.5h26
q0 -57 -23.5 -95.5t-64.5 -38.5z" />
    <glyph glyph-name="Ograve.smcp" unicode="&#xf7f2;" horiz-adv-x="669" 
d="M335 -12q-124 0 -199.5 82.5t-75.5 204.5t75.5 204.5t199.5 82.5q123 0 198.5 -82.5t75.5 -204.5t-75.5 -204.5t-198.5 -82.5zM335 17q107 0 173.5 73t66.5 185q0 113 -66 185.5t-174 72.5q-109 0 -175 -72.5t-66 -185.5q0 -112 66 -185t175 -73zM387 606h-30l-175 144
h45z" />
    <glyph glyph-name="Oacute.smcp" unicode="&#xf7f3;" horiz-adv-x="669" 
d="M335 -12q-124 0 -199.5 82.5t-75.5 204.5t75.5 204.5t199.5 82.5q123 0 198.5 -82.5t75.5 -204.5t-75.5 -204.5t-198.5 -82.5zM335 17q107 0 173.5 73t66.5 185q0 113 -66 185.5t-174 72.5q-109 0 -175 -72.5t-66 -185.5q0 -112 66 -185t175 -73zM489 750l-175 -144h-30
l160 144h45z" />
    <glyph glyph-name="Ocircumflex.smcp" unicode="&#xf7f4;" horiz-adv-x="669" 
d="M335 -12q-124 0 -199.5 82.5t-75.5 204.5t75.5 204.5t199.5 82.5q123 0 198.5 -82.5t75.5 -204.5t-75.5 -204.5t-198.5 -82.5zM335 17q107 0 173.5 73t66.5 185q0 113 -66 185.5t-174 72.5q-109 0 -175 -72.5t-66 -185.5q0 -112 66 -185t175 -73zM454 606h-28l-91 120
l-88 -120h-28l98 144h36z" />
    <glyph glyph-name="Otilde.smcp" unicode="&#xf7f5;" horiz-adv-x="669" 
d="M335 -12q-124 0 -199.5 82.5t-75.5 204.5t75.5 204.5t199.5 82.5q123 0 198.5 -82.5t75.5 -204.5t-75.5 -204.5t-198.5 -82.5zM335 17q107 0 173.5 73t66.5 185q0 113 -66 185.5t-174 72.5q-109 0 -175 -72.5t-66 -185.5q0 -112 66 -185t175 -73zM400 604
q-26 0 -44.5 17.5t-27 39t-23 39t-33.5 17.5q-26 0 -42.5 -26.5t-16.5 -80.5h-26q0 57 23.5 95.5t64.5 38.5q26 0 44.5 -17.5t27 -39t23 -39t33.5 -17.5q26 0 42.5 26.5t16.5 80.5h26q0 -57 -23.5 -95.5t-64.5 -38.5z" />
    <glyph glyph-name="Odieresis.smcp" unicode="&#xf7f6;" horiz-adv-x="669" 
d="M335 -12q-124 0 -199.5 82.5t-75.5 204.5t75.5 204.5t199.5 82.5q123 0 198.5 -82.5t75.5 -204.5t-75.5 -204.5t-198.5 -82.5zM335 17q107 0 173.5 73t66.5 185q0 113 -66 185.5t-174 72.5q-109 0 -175 -72.5t-66 -185.5q0 -112 66 -185t175 -73zM465 648
q0 -11 -8.5 -19.5t-19.5 -8.5t-19.5 8.5t-8.5 19.5t8.5 19.5t19.5 8.5t19.5 -8.5t8.5 -19.5zM263 648q0 -11 -8.5 -19.5t-19.5 -8.5t-19.5 8.5t-8.5 19.5t8.5 19.5t19.5 8.5t19.5 -8.5t8.5 -19.5z" />
    <glyph glyph-name="Oslash.smcp" unicode="&#xf7f8;" horiz-adv-x="669" 
d="M335 -12q-88 0 -154 44l-22 -32h-36l34 49q-97 83 -97 226q0 122 75.5 204.5t199.5 82.5q85 0 149 -42l21 30h36l-33 -47q101 -84 101 -228q0 -122 -75.5 -204.5t-198.5 -82.5zM335 17q107 0 173.5 73t66.5 185q0 130 -84 203l-293 -421q57 -40 137 -40zM94 275
q0 -128 81 -200l292 421q-56 37 -132 37q-109 0 -175 -72.5t-66 -185.5z" />
    <glyph glyph-name="Ugrave.smcp" unicode="&#xf7f9;" horiz-adv-x="603" 
d="M301 -12q-104 0 -159.5 58t-55.5 161v343h32v-343q0 -90 47.5 -140t135.5 -50q89 0 136.5 50t47.5 140v343h32v-343q0 -103 -55.5 -161t-160.5 -58zM354 606h-30l-175 144h45z" />
    <glyph glyph-name="Uacute.smcp" unicode="&#xf7fa;" horiz-adv-x="603" 
d="M301 -12q-104 0 -159.5 58t-55.5 161v343h32v-343q0 -90 47.5 -140t135.5 -50q89 0 136.5 50t47.5 140v343h32v-343q0 -103 -55.5 -161t-160.5 -58zM457 750l-175 -144h-30l160 144h45z" />
    <glyph glyph-name="Ucircumflex.smcp" unicode="&#xf7fb;" horiz-adv-x="603" 
d="M301 -12q-104 0 -159.5 58t-55.5 161v343h32v-343q0 -90 47.5 -140t135.5 -50q89 0 136.5 50t47.5 140v343h32v-343q0 -103 -55.5 -161t-160.5 -58zM419 606h-28l-91 120l-88 -120h-28l98 144h36z" />
    <glyph glyph-name="Udieresis.smcp" unicode="&#xf7fc;" horiz-adv-x="603" 
d="M301 -12q-104 0 -159.5 58t-55.5 161v343h32v-343q0 -90 47.5 -140t135.5 -50q89 0 136.5 50t47.5 140v343h32v-343q0 -103 -55.5 -161t-160.5 -58zM430 648q0 -11 -8.5 -19.5t-19.5 -8.5t-19.5 8.5t-8.5 19.5t8.5 19.5t19.5 8.5t19.5 -8.5t8.5 -19.5zM228 648
q0 -11 -8.5 -19.5t-19.5 -8.5t-19.5 8.5t-8.5 19.5t8.5 19.5t19.5 8.5t19.5 -8.5t8.5 -19.5z" />
    <glyph glyph-name="Yacute.smcp" unicode="&#xf7fd;" horiz-adv-x="531" 
d="M284 0h-32v238l-235 312h41l210 -282l206 282h40l-230 -312v-238zM421 750l-175 -144h-30l160 144h45z" />
    <glyph glyph-name="Thorn.smcp" unicode="&#xf7fe;" horiz-adv-x="496" 
d="M118 0h-32v550h32v-102h168q82 0 126 -45t44 -112q0 -68 -44 -113t-126 -45h-168v-133zM286 162q67 0 101.5 35.5t34.5 93.5q0 57 -35 92.5t-101 35.5h-168v-257h168z" />
    <glyph glyph-name="Ydieresis.smcp" unicode="&#xf7ff;" horiz-adv-x="531" 
d="M284 0h-32v238l-235 312h41l210 -282l206 282h40l-230 -312v-238zM397 648q0 -11 -8.5 -19.5t-19.5 -8.5t-19.5 8.5t-8.5 19.5t8.5 19.5t19.5 8.5t19.5 -8.5t8.5 -19.5zM195 648q0 -11 -8.5 -19.5t-19.5 -8.5t-19.5 8.5t-8.5 19.5t8.5 19.5t19.5 8.5t19.5 -8.5t8.5 -19.5
z" />
    <glyph glyph-name="f.alt1" horiz-adv-x="246" 
d="M130 0h-30v456h-80v27h80v51q0 67 32 105t89 38q35 0 57 -13l-13 -26q-21 12 -44 12q-91 0 -91 -116v-51h98v-27h-98v-456z" />
    <glyph glyph-name="l.alt1" horiz-adv-x="243" 
d="M168 -12q-82 0 -82 97v582h30v-582q0 -70 52 -70q35 0 57 26l18 -23q-32 -30 -75 -30z" />
    <glyph glyph-name="a.alt1" horiz-adv-x="566" 
d="M480 0h-30v81q-26 -40 -73 -66.5t-101 -26.5q-98 0 -157 69t-59 184q0 114 59.5 184t156.5 70q53 0 98.5 -25.5t75.5 -69.5v83h30v-483zM276 15q54 0 102 28t72 68v259q-24 40 -72 69t-102 29q-86 0 -134.5 -64t-48.5 -163t48.5 -162.5t134.5 -63.5z" />
    <glyph glyph-name="y.alt1" horiz-adv-x="528" 
d="M251 -196q-105 0 -170 73l22 25q55 -71 148 -71q75 0 118 43.5t43 121.5v78q-33 -37 -80 -61.5t-95 -24.5q-75 0 -113 36.5t-38 119.5v339h30v-339q0 -72 32 -100.5t93 -28.5q48 0 96.5 25.5t74.5 62.5v380h30v-487q0 -51 -17 -90t-45 -60t-60.5 -31.5t-68.5 -10.5z" />
    <glyph glyph-name="G.alt1" horiz-adv-x="708" 
d="M398 -13q-141 0 -237 97t-96 249q0 151 96 248t237 97q144 0 244 -103l-21 -22q-39 45 -98 70t-125 25q-127 0 -212.5 -88t-85.5 -227q0 -138 85.5 -227t212.5 -89q122 0 190 78t78 195h-331v30h364q0 -145 -78.5 -239t-222.5 -94z" />
    <glyph glyph-name="G.smcp.alt1" horiz-adv-x="652" 
d="M348 -12q-122 0 -205 81t-83 206t83 206t205 81q124 0 213 -87l-21 -23q-76 81 -192 81q-108 0 -181 -72.5t-73 -185.5q0 -112 73 -185.5t181 -73.5q91 0 154.5 59.5t72.5 162.5h-250v29h284q0 -120 -71.5 -199.5t-189.5 -79.5z" />
    <glyph glyph-name="Gbreve.alt1" horiz-adv-x="749" 
d="M577 816q-65 -88 -175 -88q-109 0 -176 88l21 19q57 -80 155 -80t155 80zM398 -13q-141 0 -237 97t-96 249q0 151 96 248t237 97q144 0 244 -103l-21 -22q-39 45 -98 70t-125 25q-127 0 -212.5 -88t-85.5 -227q0 -138 85.5 -227t212.5 -89q122 0 190 78t78 195h-331v30
h364q0 -145 -78.5 -239t-222.5 -94z" />
    <glyph glyph-name="Gbreve.smcp.alt1" horiz-adv-x="652" 
d="M524 697q-65 -88 -175 -88q-109 0 -176 88l21 19q57 -80 155 -80t155 80zM348 -12q-122 0 -205 81t-83 206t83 206t205 81q124 0 213 -87l-21 -23q-76 81 -192 81q-108 0 -181 -72.5t-73 -185.5q0 -112 73 -185.5t181 -73.5q91 0 154.5 59.5t72.5 162.5h-250v29h284
q0 -120 -71.5 -199.5t-189.5 -79.5z" />
    <glyph glyph-name="Gcommaaccent.alt1" horiz-adv-x="749" 
d="M439 -137q0 -36 -18 -69.5t-44 -51.5l-22 18q24 18 38.5 43.5t14.5 48.5q-6 -1 -8 -1q-14 0 -23 9.5t-9 23.5q0 13 9 22.5t23 9.5q16 0 27.5 -14t11.5 -39zM398 -13q-141 0 -237 97t-96 249q0 151 96 248t237 97q144 0 244 -103l-21 -22q-39 45 -98 70t-125 25
q-127 0 -212.5 -88t-85.5 -227q0 -138 85.5 -227t212.5 -89q122 0 190 78t78 195h-331v30h364q0 -145 -78.5 -239t-222.5 -94z" />
    <glyph glyph-name="Gcommaaccent.smcp.alt1" horiz-adv-x="652" 
d="M390 -137q0 -36 -18 -69.5t-44 -51.5l-22 18q24 18 38.5 43.5t14.5 48.5q-6 -1 -8 -1q-14 0 -23 9.5t-9 23.5q0 13 9 22.5t23 9.5q16 0 27.5 -14t11.5 -39zM348 -12q-122 0 -205 81t-83 206t83 206t205 81q124 0 213 -87l-21 -23q-76 81 -192 81q-108 0 -181 -72.5
t-73 -185.5q0 -112 73 -185.5t181 -73.5q91 0 154.5 59.5t72.5 162.5h-250v29h284q0 -120 -71.5 -199.5t-189.5 -79.5z" />
    <glyph glyph-name="lslash.alt1" horiz-adv-x="276" 
d="M12 248v32l107 61v326h30v-309l107 62v-32l-107 -62v-241q0 -70 52 -70q35 0 57 26l18 -23q-32 -30 -75 -30q-82 0 -82 97v224z" />
    <glyph glyph-name="lacute.alt1" horiz-adv-x="243" 
d="M254 872l-175 -144h-30l160 144h45zM168 -12q-82 0 -82 97v582h30v-582q0 -70 52 -70q35 0 57 26l18 -23q-32 -30 -75 -30z" />
    <glyph glyph-name="lcommaaccent.alt1" horiz-adv-x="243" 
d="M166 -137q0 -36 -18 -69.5t-44 -51.5l-22 18q24 18 38.5 43.5t14.5 48.5q-6 -1 -8 -1q-14 0 -23 9.5t-9 23.5q0 13 9 22.5t23 9.5q16 0 27.5 -14t11.5 -39zM168 -12q-82 0 -82 97v582h30v-582q0 -70 52 -70q35 0 57 26l18 -23q-32 -30 -75 -30z" />
    <glyph glyph-name="lcaron.alt1" horiz-adv-x="243" 
d="M259 626q0 -36 -18 -69.5t-44 -51.5l-22 18q24 18 38.5 43.5t14.5 48.5q-6 -1 -8 -1q-14 0 -23 9.5t-9 23.5q0 13 9 22.5t23 9.5q16 0 27.5 -14t11.5 -39zM168 -12q-82 0 -82 97v582h30v-582q0 -70 52 -70q35 0 57 26l18 -23q-32 -30 -75 -30z" />
    <glyph glyph-name="aacute.alt1" horiz-adv-x="566" 
d="M441 700l-175 -144h-30l160 144h45zM480 0h-30v81q-26 -40 -73 -66.5t-101 -26.5q-98 0 -157 69t-59 184q0 114 59.5 184t156.5 70q53 0 98.5 -25.5t75.5 -69.5v83h30v-483zM276 15q54 0 102 28t72 68v259q-24 40 -72 69t-102 29q-86 0 -134.5 -64t-48.5 -163
t48.5 -162.5t134.5 -63.5z" />
    <glyph glyph-name="agrave.alt1" horiz-adv-x="566" 
d="M342 556h-30l-175 144h45zM480 0h-30v81q-26 -40 -73 -66.5t-101 -26.5q-98 0 -157 69t-59 184q0 114 59.5 184t156.5 70q53 0 98.5 -25.5t75.5 -69.5v83h30v-483zM276 15q54 0 102 28t72 68v259q-24 40 -72 69t-102 29q-86 0 -134.5 -64t-48.5 -163t48.5 -162.5
t134.5 -63.5z" />
    <glyph glyph-name="acircumflex.alt1" horiz-adv-x="566" 
d="M405 556h-28l-91 120l-88 -120h-28l98 144h36zM480 0h-30v81q-26 -40 -73 -66.5t-101 -26.5q-98 0 -157 69t-59 184q0 114 59.5 184t156.5 70q53 0 98.5 -25.5t75.5 -69.5v83h30v-483zM276 15q54 0 102 28t72 68v259q-24 40 -72 69t-102 29q-86 0 -134.5 -64t-48.5 -163
t48.5 -162.5t134.5 -63.5z" />
    <glyph glyph-name="adieresis.alt1" horiz-adv-x="566" 
d="M415 598q0 -11 -8.5 -19.5t-19.5 -8.5t-19.5 8.5t-8.5 19.5t8.5 19.5t19.5 8.5t19.5 -8.5t8.5 -19.5zM213 598q0 -11 -8.5 -19.5t-19.5 -8.5t-19.5 8.5t-8.5 19.5t8.5 19.5t19.5 8.5t19.5 -8.5t8.5 -19.5zM480 0h-30v81q-26 -40 -73 -66.5t-101 -26.5q-98 0 -157 69
t-59 184q0 114 59.5 184t156.5 70q53 0 98.5 -25.5t75.5 -69.5v83h30v-483zM276 15q54 0 102 28t72 68v259q-24 40 -72 69t-102 29q-86 0 -134.5 -64t-48.5 -163t48.5 -162.5t134.5 -63.5z" />
    <glyph glyph-name="atilde.alt1" horiz-adv-x="566" 
d="M348 554q-26 0 -44.5 17.5t-27 39t-23 39t-33.5 17.5q-26 0 -42.5 -26.5t-16.5 -80.5h-26q0 57 23.5 95.5t64.5 38.5q26 0 44.5 -17.5t27 -39t23 -39t33.5 -17.5q26 0 42.5 26.5t16.5 80.5h26q0 -57 -23.5 -95.5t-64.5 -38.5zM480 0h-30v81q-26 -40 -73 -66.5t-101 -26.5
q-98 0 -157 69t-59 184q0 114 59.5 184t156.5 70q53 0 98.5 -25.5t75.5 -69.5v83h30v-483zM276 15q54 0 102 28t72 68v259q-24 40 -72 69t-102 29q-86 0 -134.5 -64t-48.5 -163t48.5 -162.5t134.5 -63.5z" />
    <glyph glyph-name="aring.alt1" horiz-adv-x="566" 
d="M283 560q-38 0 -65.5 27.5t-27.5 65.5t27.5 65.5t65.5 27.5t65 -27.5t27 -65.5t-27 -65.5t-65 -27.5zM283 584q28 0 48 20t20 49t-20 49t-48 20q-29 0 -49 -20t-20 -49t20 -49t49 -20zM480 0h-30v81q-26 -40 -73 -66.5t-101 -26.5q-98 0 -157 69t-59 184q0 114 59.5 184
t156.5 70q53 0 98.5 -25.5t75.5 -69.5v83h30v-483zM276 15q54 0 102 28t72 68v259q-24 40 -72 69t-102 29q-86 0 -134.5 -64t-48.5 -163t48.5 -162.5t134.5 -63.5z" />
    <glyph glyph-name="amacron.alt1" horiz-adv-x="566" 
d="M471 591h-363v27h363v-27zM480 0h-30v81q-26 -40 -73 -66.5t-101 -26.5q-98 0 -157 69t-59 184q0 114 59.5 184t156.5 70q53 0 98.5 -25.5t75.5 -69.5v83h30v-483zM276 15q54 0 102 28t72 68v259q-24 40 -72 69t-102 29q-86 0 -134.5 -64t-48.5 -163t48.5 -162.5
t134.5 -63.5z" />
    <glyph glyph-name="abreve.alt1" horiz-adv-x="566" 
d="M461 657q-65 -88 -175 -88q-109 0 -176 88l21 19q57 -80 155 -80t155 80zM480 0h-30v81q-26 -40 -73 -66.5t-101 -26.5q-98 0 -157 69t-59 184q0 114 59.5 184t156.5 70q53 0 98.5 -25.5t75.5 -69.5v83h30v-483zM276 15q54 0 102 28t72 68v259q-24 40 -72 69t-102 29
q-86 0 -134.5 -64t-48.5 -163t48.5 -162.5t134.5 -63.5z" />
    <glyph glyph-name="aogonek.alt1" horiz-adv-x="566" 
d="M480 0q-82 -39 -82 -102q0 -57 52 -57q43 0 58 47l25 -11q-22 -63 -83 -63q-35 0 -58 21t-23 63q0 34 22.5 65t58.5 50v68q-26 -40 -73 -66.5t-101 -26.5q-98 0 -157 69t-59 184q0 114 59.5 184t156.5 70q53 0 98.5 -25.5t75.5 -69.5v83h30v-483zM276 15q54 0 102 28
t72 68v259q-24 40 -72 69t-102 29q-86 0 -134.5 -64t-48.5 -163t48.5 -162.5t134.5 -63.5z" />
    <glyph glyph-name="yacute.alt1" horiz-adv-x="528" 
d="M415 700l-175 -144h-30l160 144h45zM251 -196q-105 0 -170 73l22 25q55 -71 148 -71q75 0 118 43.5t43 121.5v78q-33 -37 -80 -61.5t-95 -24.5q-75 0 -113 36.5t-38 119.5v339h30v-339q0 -72 32 -100.5t93 -28.5q48 0 96.5 25.5t74.5 62.5v380h30v-487q0 -51 -17 -90
t-45 -60t-60.5 -31.5t-68.5 -10.5z" />
    <glyph glyph-name="ydieresis.alt1" horiz-adv-x="528" 
d="M388 598q0 -11 -8.5 -19.5t-19.5 -8.5t-19.5 8.5t-8.5 19.5t8.5 19.5t19.5 8.5t19.5 -8.5t8.5 -19.5zM186 598q0 -11 -8.5 -19.5t-19.5 -8.5t-19.5 8.5t-8.5 19.5t8.5 19.5t19.5 8.5t19.5 -8.5t8.5 -19.5zM251 -196q-105 0 -170 73l22 25q55 -71 148 -71q75 0 118 43.5
t43 121.5v78q-33 -37 -80 -61.5t-95 -24.5q-75 0 -113 36.5t-38 119.5v339h30v-339q0 -72 32 -100.5t93 -28.5q48 0 96.5 25.5t74.5 62.5v380h30v-487q0 -51 -17 -90t-45 -60t-60.5 -31.5t-68.5 -10.5z" />
    <glyph glyph-name="ae.alt1" horiz-adv-x="957" 
d="M480 0h-30v81q-26 -40 -73 -66.5t-101 -26.5q-98 0 -157 69t-59 184q0 114 59.5 184t156.5 70q53 0 98.5 -25.5t75.5 -69.5v83h30v-121q26 61 76.5 97t116.5 36q106 0 165 -73t59 -180v-10h-417q2 -92 57.5 -154.5t145.5 -62.5q100 0 168 73l18 -19q-78 -81 -186 -81
q-71 0 -123.5 35t-79.5 96v-119zM276 15q54 0 102 28t72 68v259q-24 40 -72 69t-102 29q-86 0 -134.5 -64t-48.5 -163t48.5 -162.5t134.5 -63.5zM865 259q0 49 -20 95.5t-65.5 80t-107.5 33.5q-87 0 -138 -64.5t-54 -144.5h385z" />
    <glyph glyph-name="zero.pzero" horiz-adv-x="605" 
d="M303 -12q-91 0 -150 66l-32 -54h-36l47 79q-67 98 -67 254q0 62 13 120t39.5 109.5t74.5 83t111 31.5q89 0 148 -64l32 54h36l-48 -80q69 -97 69 -254q0 -61 -13 -119.5t-39.5 -110.5t-74 -83.5t-110.5 -31.5zM303 18q55 0 96 29t63 76.5t32.5 100t10.5 109.5
q0 138 -51 225l-284 -476q51 -64 133 -64zM100 333q0 -137 50 -223l284 475q-51 62 -131 62q-55 0 -96 -28.5t-63.5 -76t-33 -100t-10.5 -109.5z" />
    <glyph glyph-name="Gcircumflex.alt1" horiz-adv-x="749" 
d="M516 728h-28l-91 120l-88 -120h-28l98 144h36zM398 -13q-141 0 -237 97t-96 249q0 151 96 248t237 97q144 0 244 -103l-21 -22q-39 45 -98 70t-125 25q-127 0 -212.5 -88t-85.5 -227q0 -138 85.5 -227t212.5 -89q122 0 190 78t78 195h-331v30h364q0 -145 -78.5 -239
t-222.5 -94z" />
    <glyph glyph-name="Gdotaccent.alt1" horiz-adv-x="749" 
d="M395 736q-11 0 -20 8.5t-9 20.5t9 20.5t20 8.5q12 0 20.5 -8.5t8.5 -20.5t-8.5 -20.5t-20.5 -8.5zM398 -13q-141 0 -237 97t-96 249q0 151 96 248t237 97q144 0 244 -103l-21 -22q-39 45 -98 70t-125 25q-127 0 -212.5 -88t-85.5 -227q0 -138 85.5 -227t212.5 -89
q122 0 190 78t78 195h-331v30h364q0 -145 -78.5 -239t-222.5 -94z" />
    <glyph glyph-name="Gcircumflex.smcp.alt1" horiz-adv-x="634" 
d="M348 -12q-122 0 -205 81t-83 206t83 206t205 81q124 0 213 -87l-21 -23q-76 81 -192 81q-108 0 -181 -72.5t-73 -185.5q0 -112 73 -185.5t181 -73.5q91 0 154.5 59.5t72.5 162.5h-250v29h284q0 -120 -71.5 -199.5t-189.5 -79.5zM470 606h-28l-91 120l-88 -120h-28l98 144
h36z" />
    <glyph glyph-name="Gdotaccent.smcp.alt1" horiz-adv-x="634" 
d="M348 -12q-122 0 -205 81t-83 206t83 206t205 81q124 0 213 -87l-21 -23q-76 81 -192 81q-108 0 -181 -72.5t-73 -185.5q0 -112 73 -185.5t181 -73.5q91 0 154.5 59.5t72.5 162.5h-250v29h284q0 -120 -71.5 -199.5t-189.5 -79.5zM351 641q-11 0 -20 8.5t-9 20.5t9 20.5
t20 8.5q12 0 20.5 -8.5t8.5 -20.5t-8.5 -20.5t-20.5 -8.5z" />
    <glyph glyph-name="aeacute.alt1" horiz-adv-x="905" 
d="M480 0h-30v81q-26 -40 -73 -66.5t-101 -26.5q-98 0 -157 69t-59 184q0 114 59.5 184t156.5 70q53 0 98.5 -25.5t75.5 -69.5v83h30v-121q26 61 76.5 97t116.5 36q106 0 165 -73t59 -180v-10h-417q2 -92 57.5 -154.5t145.5 -62.5q100 0 168 73l18 -19q-78 -81 -186 -81
q-71 0 -123.5 35t-79.5 96v-119zM276 15q54 0 102 28t72 68v259q-24 40 -72 69t-102 29q-86 0 -134.5 -64t-48.5 -163t48.5 -162.5t134.5 -63.5zM865 259q0 49 -20 95.5t-65.5 80t-107.5 33.5q-87 0 -138 -64.5t-54 -144.5h385zM625 700l-175 -144h-30l160 144h45z" />
    <glyph glyph-name="ycircumflex.alt1" horiz-adv-x="528" 
d="M383 556h-28l-91 120l-88 -120h-28l98 144h36zM251 -196q-105 0 -170 73l22 25q55 -71 148 -71q75 0 118 43.5t43 121.5v78q-33 -37 -80 -61.5t-95 -24.5q-75 0 -113 36.5t-38 119.5v339h30v-339q0 -72 32 -100.5t93 -28.5q48 0 96.5 25.5t74.5 62.5v380h30v-487
q0 -51 -17 -90t-45 -60t-60.5 -31.5t-68.5 -10.5z" />
    <glyph glyph-name="ldot.alt1" horiz-adv-x="240" 
d="M168 -12q-82 0 -82 97v582h30v-582q0 -70 52 -70q35 0 57 26l18 -23q-32 -30 -75 -30zM254 245q0 -13 -10 -23t-23 -10t-23 10t-10 23t10 22.5t23 9.5t23 -9.5t10 -22.5z" />
    <glyph glyph-name="fl.alt1" horiz-adv-x="489" 
d="M130 0h-30v456h-80v27h80v51q0 67 32 105t89 38q35 0 57 -13l-13 -26q-21 12 -44 12q-91 0 -91 -116v-51h98v-27h-98v-456zM414 -12q-82 0 -82 97v582h30v-582q0 -70 52 -70q35 0 57 26l18 -23q-32 -30 -75 -30z" />
    <glyph glyph-name="f_f_l.alt1" horiz-adv-x="735" 
d="M130 0h-30v456h-80v27h80v51q0 67 32 105t89 38q45 0 82 -30l-18 -24q-29 27 -64 27q-91 0 -91 -116v-51h98v-27h-98v-456zM376 0h-30v456h-80v27h80v51q0 67 32 105t89 38q35 0 57 -13l-13 -26q-21 12 -44 12q-91 0 -91 -116v-51h98v-27h-98v-456zM660 -12q-82 0 -82 97
v582h30v-582q0 -70 52 -70q35 0 57 26l18 -23q-32 -30 -75 -30z" />
    </font>
</defs>
</svg>
